&title=Just keep looking at me!
&artist=kana(CV:田中あいみ)
&first=0
&des=IIIX
&lv_5=13
&inote_5=(124){4},,,,
{16}3,4h[8:1],,,3,,2h[8:1],,4,3,4,,3hx[16:1],4hx[16:1],3hx[16:1],4hx[16:1],
2h[8:1],,4,3,4h[16:1],,4x,,2,5,3,6,4,7,5hx[8:1],,7h[4:1],,6,,
5h[4:1],,6,,7,5,6,5,
7hx[16:1],,7hx[16:1],,
5,6,5h[16:1],,7,6,7h[16:1],,5,6,5,6,5hx[8:1],,7hx[8:1],,
{16}3h[8:1],,4h[8:1],,5v3[64:5]
,5x,,6h[8:1],,,
7,,1h[8:1],,2,,2h[8:1],,4h[8:1],,5>3[64:5],5x,,7h[8:1],,,
{48}E7,B6,B5,E5,,,{48}E2,B2,B3,E4,,,
{8},6h[4:1],7,2h[4:1],3,{16}5,3,6,4,7h[4:1],,E8/B7,,3h[4:1],,B3/E4,,
6h[8:1],,1,,78,78,,{48}6,5hx[64:11],,,,,{16},2,,8b>3[8:1]/4b,,,,8b/2h[4:1],
,,,4x-7[8:1],,3,,2,2,,{48}1h[8:1],8x-5[8:1],,{16},,2,,3,,4,,56,56,,,
{48}7,8hx[64:11],,,,,{16}4,,7bv4[32:3]/1bv4[32:3],,,,7b/1b,,,,
56,56,,{48}E4,B3,B2,E2,,,{48}E7,B7,B8,E1,,,,,,{16}2bv5[32:3]/8bv5[32:3],,,,2b/8b,,,,
43,43,,{48}E3,B2,B1,E1,,,{48}E6,B6,B7,E8,,,,,,
{16}3h[8:1],,4h[8:1],,5v4[64:5]
,5,6,6h[16:1],,,
7,3,1h[8:1],,2,,2h[8:1],,4h[16:1],,5v3[8:1],5,7,7h[8:1],,,
{48}E8,B7,B6,E6,,,{48}E1,B1,B2,E3,,,
{8},6h[4:1],7,2h[4:1],3,{16}5,3,6,4,7h[8:1],,E8/B7,,2h[8:1]/4,,8,,
6h[8:1]/1,,5,,78,78,,{48}6,5hx[64:11],,,,,{16},2,,8b>3[8:1]/4b,,,,8b/2h[4:1],
,,,4x-7[8:1],,3,,2,2,,{48}1h[8:1],8x-5[8:1],,{16},,2,,3,,4,,56,56,,,
{48}7,8hx[64:11],,,,,{16}4,,7bv4[32:3]/1bv4[32:3],,,,7b/1b,,,,
56,56,,{48}E4,B3,B2,E2,,,{48}E7,B7,B8,E1,,,,,,{16}2bv5[32:3]/8bv5[32:3],,,,2b/8b,,,,
43,43,,{48}E3,B2,B1,E1,,,{48}E6,B6,B7,E8,,,,,,
{4}2>6[2:1],,6qq1[2:1],,1<3[2:1],,8hx[4:1],
{16},,7,,{12}2hx[6:1],,1,{12}4,4,6,8hx[4:1],,,
5,5,3,8<5[8:1],,1,8qq3[8:3],,2,8-4[8:1],,,{16},,,,2<6<1[4:1],,6,,5hx[8:1],,,,
5,,5,3,,3,7,,
8>4>1[4:1],,4,,5hx[8:1],,,,
5,,5,7,,7,4,,
4,5,3,6,2,7,1,8,
{32}1x,2x,3x,4x,5x,6x,7x,8x,
1x-5[8:1],2x,3x,4x,5x,6x,7x,8x,
1x/2x-4v5-7[6:1],,,,,,,,8-4[8:1],,,,,,,,
1w5[32:3],,,,,,,,{64}B1,Cf,B6/B5/B4,,,,,,,,,,,,,,
{16}3v8[8:1],4,,4,3,,7h[8:1],,2v5[8:1],,1-6[8:1],,2,,1,,
{16}3>8[8:1],4,,4,3,,7,,2v5[8:1]/1-6[8:1],,3,,2b/1b,,,,
{8}1p4[8:1]*p5[8:1],,1>7[8:3],,7x,8,1h[8:1],,
{8}2p5[8:1]*p6[8:1],,2>8[8:3],,7x,8,1h[8:1],,
{16}3>8[8:1],5,,5,3,,6h[8:1],,8V24[16:3],,7v5[8:1],,8,,7,,
{16}3v8[8:1],4,,4,3,,5,,8V24[8:1]/7v5[8:1],,6,,8b/7b,,,,
{8}1<5[8:1]*p5[8:1],,1>7[8:3],,6x,7,8h[8:1],,
{8}2p5[8:1]*<5[8:1],,2>8[8:3],,7x,7,1h[8:1],,
3-8[8:1],4,5,6,{16}78,78,,{48}6,5hx[48:5],,,,,{16},
{8}1h[8:1],2v5[8:1],6v1[8:1],2b,6b,4v5[8:1],,,
{16}6,7,{8}8bx/2b-5[8:1],,7-4[8:1]/2,,3-8[8:1]/7,,5h[8:1]/3,,
26,37,2v5[8:1]/6-1[8:1],37,2b/6b,,8b/4b,,
{16}6,5,,5,6,,7h[8:1],,5,6,5,,6hx[16:1],5hx[16:1],6hx[16:1],5hx[16:1],
7h[8:1],,5,6,5h[16:1],,5x,,7,4,6,3,5,2,4hx[8:1],,2h[4:1],,3,,
4h[4:1],,3,,2,4,3,4,
2hx[16:1],,2hx[16:1],,
4,3,4h[16:1],,2,3,2h[16:1],,4,3,4,3,4hx[8:1],,2hx[8:1],,
8hb[4:1],,,,3,5,1h[8:1],,6v1[8:1],4,8,,7h[8:1],,,,
56,,2,1,4,7,1,8,3,6,8,7,2h[8:1],,5h[8:1],,8b,,
,,3,5,,4x,6v1[8:1],5,7hx[4:1],,6,,,,
56,,2,1,3,1,2h[8:1],,8-4[8:1],,1-6[8:1],,8>3[8:1],,1,,8bx,,,,
7h[8:1],,4h[8:1],,6,5,7h[8:1],,3v8[8:1],5,1,,2h[8:1],,,,
45,,7,8,6,8,7h[8:1],,1>4[8:1]*-6[8:1],,57,,1b,,,,
4>1[8:1],5,,,4v1[8:1]*v7[8:1],6,6,,4,,,,
5hb[4:1]/2b,,,,3>8[8:1],4,,,3v8[8:1]*-6[8:1],5,5,,3b,,,,
{8}2-5[8:1],,8h[8:1],,6<1[8:1],5,4,3,2h[8:1],5,{16}34,34,,6,5h[4:1]/7>2[8:1],,
{16},,,,3,,{12}7hx[6:1],,8,{12}5,5,3,1hx[4:1],,,
4,4,6,1>4[8:1],,8,1-5[8:1],7,7,1w5[8:1],,,{16}1b,,,,2<7[8:1],,6<1b[8:1],,2,,,,
5,,3-8[8:1],4,,4,3,,
7>3[8:1],,4>8b[8:1],,5hx[8:1],,,,
5,,6<1[8:1],3,,3,6,,
4,5,3,6,2,7,1,8,
{32}1x,2x,3x,4x,5x,6x,7x,8x,
1x-5[8:1],2x,3x,4x,5x,6x,7x,8x,
1x/2x-4v5-7[6:1],,,,,,,,8-4[8:1],,,,,,,,
1w5[32:3],,,,,,,,{64}B1,Cf,B6/B5/B4,,,,,,,,,,,,,,
{16}
1h[16:9]/8h[16:9],,,,,,,,,,
{64}2bx/7bx,3bx/6bx,5bx/4bx,,,,,,
{16}1b-6[8:1]/8b,,,,
1>4[8:1],5,,5,1,,6h[8:1],,8h[8:1],,5,,76,6h[8:1]/7h[8:1],,,
{8}8bx-4[8:1]/5bx-1[8:1],,{16}5b/8b>6[8:3],,{8},6,7,8h[8:1],,
{8}1bx-5[8:1]/6bx-2[8:1],,{16}6b/1b>7[8:3],,{8},7,8,1h[8:1],,
{16}8<5[8:1],2,,2,8,,1h[8:1],,4v7[8:1],,3-8[8:1],,4,,3,,
{16}6v1[8:1],4,,4,6,,2h[8:1],,8V24[8:1]/7v5[8:1],,6,,8b/7b,,,,
{8}8bxv5[8:1]/4bx>1[8:1],,8b<2[8:3]/4b,,3,2,1h[8:1],,
{8}7bxq4[8:1]/3bx>8[8:1],,7b<1[8:3]/3b,,2,1,8h[8:1],,
6x-1[8:1],5,4,3,{16}21,21,,{48}3,4hx[48:5],,,,,{16},
{8}8h[8:1],7v4[8:1],3v8[8:1],7b,3b,5v4[8:1],,,
{16}3,2,{8}1bx/7b-4[8:1],,2-5[8:1]/7,,6-1[8:1]/2,,4h[8:1]/6,,
73,15,7v4[8:1]/3-8[8:1],15,7b/3b,,2b/6b,,
{16}3,4,,4,3,,2h[8:1],,4,3,4,,3hx[32:1],3hx[32:1],4hx[32:1],4hx[32:1],
2h[8:1],,4,3,4h[16:1],,4x,,2,5,3,6,4,7,5hx[8:1],,7h[4:1],,6,,
5h[4:1],,6,,7,5,6,5,
7hx[16:1],,7hx[16:1],,
{8}26,48,2v5[8:1]/6-1[8:1],48,2b<6[8:1]/6b>2[8:1],,2b/6b,,
