&title=SHANTI 【志国一路】
&artist=wotaku
&first=0.205
&des=重太
&clock_count=4
&lv_5=13+
&des_5=
&inote_5=(144)
{16},,,,
,,,,
,,,,
,,,,
{16}3bx<4V61V38[4:6]/5bx,,,,
7,,,,
7,,,,
7,,,,
{16}5,,,,
5,,,,
5,,,,
5,,,,
{16}6bxV85-3[4:3]/1bx,,,,
1,,,,
4,,,,
2,,,,
{12}1,8,7,
8,7,6,
5-1[8:1],6,5,
{16}4x,,,,
{12}2h[24:4],,4,
{16}3,,54,,
6h[8:1],,5,,
{24}7x,5,6,,,,
{12}7h[24:4]/4,,5,
{16}6,,54,,
3h[8:1]/4h[8:1],,,,
{24}2x,4,3,,,,
{12}2h[6:1]/5,,1,
{16}3,,54,,
6h[8:1]/5h[8:1],,,,
{24}7x,5,6,,,,
{12}74,8,1,
2,3,4,
{16}5-8b[8:1]/1h[24:1],,,,
A2/A3/D3f/E3,,,,
{16}8-3p6[8:3]/4,,5h[8:4],,
,,,,
,,,,
,,5p8p4[8:3]/1,,
{16}2h[8:4],,,,
,,,,
,,34,,
,,7/5pp4>3[8:3],,
{16}8h[8:4],,,,
,,,,
,,72,,
,,5<8q4[4:2]/1,,
{16}5/1h[4:2],,,,
,,,,
,,2,,
3,,,,
{16}6-1[8:1]/5,,7/4h[8:3],,
,,,,
8x,,75,,
65,,,,
{16}3-8[8:1]/4,,2/5h[8:3],,
,,,,
1x,,24,,
34,,,,
{16}6/5-1[8:1],,8h[8:3]/4,,
,,,,
2x,,3,,
4/6x,,7,5,
{16}6,,3,5,
4,,7x/6,,
5/4x,,2x/3,,
8x/1-3[8:1],,,,
{16}4-1[8:1],,5,,
8-4[8:1],,7,,
5-8[8:1],,6,,
7<4[8:1],,6,,
{16}7/2<7[8:1],,,,
5p1[8:1]*v2[8:1]/2,,,,
5bx,,,,
8-6[8:1]/3,,,,
{16}5-8[8:1],,4,,
1-5[8:1],,2,,
3q7[8:1]*v6[8:1],,2,,
3,,,,
{16}8>2[8:1]/6-4[8:1],,,,
8v3b[8:1]/6v3b[8:1],,,,
6bx/8bx,,,,
24,,,,
{16}3,4,2,4,
1,4,1,5x,
2,6,3,7,
4,7,5,,
{16}8<5[8:1],,,,
8-3[8:1]/5-1[8:1],,,,
8bx/5bx,,,,
83,,75,,
{16}6,5,7,,
4,5,3,,
7,5,6,4,
5-1[8:1],,73,,
{16}8-3[8:1],,6,,
4-8[8:1],,5,,
6bxq7[4:1],,,,
,,,,
{16}1xh[4:3],,,,
8,,,,
7,,,,
6,,,,
{16}5h[4:4],,,,
8,,,,
1,,,,
2,,,,
{16}3h[4:4],,,,
1,,,,
7,,,,
6,,,,
{16}5-7[8:1],,,,
8/5-2[8:1],,,,
8-4[8:1]*-5[8:1]/5,,,,
8,,,,
{16}24,,,3,
5-1[8:1]/4,,6,,
8h[4:1]/5,,,,
{24}2x,8,1,,,,
{16}71,,,6,
7-3[8:1]/5,,4,,
7/2,,,,
{24}2x,4,3,,,,
{16}5,5,4h,7,
8h,6,2h,4,
3h,7,5h,6,
8h,4,3h,1q7[8:3],
{16}5q3b[8:3],,,,
,,,,
,,,,
1bx-6[8:1]/A3/A4/D4/E4f,,,,
{16}14,,3,,
3,5,1,,
2x<7[8:1]/6x>3[8:1],,7,,
62,,,,
{16}8-3[8:1],,4,,
5-1[8:1],,6,,
7x-4[8:1],,8,,
73,,,,
{16}51,,2,,
2,6,4,,
7x-4[8:1]/5x-1[8:1],,8,,
75,,,,
{16}2>5[8:1],,5,,
6p1[8:1],,8,,
7<4b[8:1],,8,,
17,,,,
{16}24,,3,,
6,5,7,,
8x-5[8:1]/4x-8[8:1],,3,,
84,,,,
{16}1>4[8:1],,4,,
5qq3[8:1],,7,,
6x<1b[8:1],,5,,
{24}62,,,2x,3x,4x,
{16}5x-1[8:1]/A8/A1/E1f,,,,
7/5,,,,
2x-5[8:1]/4x-8[8:1],,3,,
24,,,,
{16}7<4[8:1],,4,,
3q8[8:1],,2,,
1x-4b[8:1],,2,,
1/A7/A6/E7/D7f,,,,
{16}8-6[8:1]/5-8[8:1],,,,
8v2<1v3[4:1]/5,,,,
5x,,6,,
7,,,,
{16}8-3[8:1]/4,,3,,
8/2v4>3v5[4:1],,1,,
5x,,6,,
{24}7,,,74,63,52,
{16}1-5[8:1]/4-7[8:1],,,,
14,,,,
8x<5[8:1],,4,,
83,,,,
{12}2,3,4,
5,4,5,
{16}6p1[8:1]/4q8[8:1],,7x,,
,,,,
{16}18,,7,7,
5pp7pp8[4:1],,64,,
2x,,3,,
4,,75,,
{16}6,4,5x-1[8:1],,
2,,3x-8[8:1],,
4x,,7,,
6-2[8:1],,5,,
{16}1b-5[8:1]*-4[8:1]/6,,,,
1,,,,
7xq3[8:1]/6xq3[8:1],,85,,
76,,,,
{12}2,3,4,
3,4,5,
{16}6xp1[8:1]/4xq8[8:1],,7,,
64,,,,
{16}1h[4:3],,,,
,,,,
,,,,
,,,,
{16}2h[4:3]/4h[4:3],,,,
,,,,
,,,,
,,,,
{16}4>1[8:1],3,,3,
5,,6,,
7x<4[8:1],1,,1,
7,,3,,
{16}2,4,3,5,
1-5[8:1],4,3,5,
1x<6[8:1],,6,,
1,,4,,
{16}53,,2,4,
3,,7,,
7,5,6,,
5<1qq8[8:3]/3,,1,,
{16}2,,3,,
4,,4,,
E5h[384:1],,,,
,,,,
{16}2-4[8:1],,4,,
5-2[8:1],,6,,
8,,6,,
6,2,5,,
{16}3-5[8:1],,5,,
6-3[8:1],,8,,
7,,6,,
5,2,4,,
{16}E3h[8:1],,,,
Ch[8:1],,,,
E7h[8:1],,,,
4-6[8:1],,3,,
{16}2h[8:1],,,,
5h[8:1]/1h[8:1],,,,
8h[8:1]/6h[8:1],,,,
7-4[8:1],,1,,
{16}2h[16:2],,,A4h[16:3],
1h[8:1],,,A5h[16:3],
8h[8:1],,,A6h[16:3],
8-5[8:1],,1,,
{16}2,,,,
C/6,,,,
C/3,,,,
8/C,,,,
{16}24,,1,1,
5h[8:1],,8,8,
6h[8:1],,2,2,
4<6[8:1],,3,,
{16}1,,2,2,
A6h[8:1],,8,8,
A4h[8:1],,1,1-4[8:1],
A5h[8:1],,2,,
{16},,7,7,
5h[8:1],,1,1,
3h[8:1],,8,8,
{48}4s8[8:4],,,,,,,5bx,,,,,
{16},5bx,,5bx,
{48},,,,,5bx,,,,,,5bx,
,,,,,5bx,,,,,,,
{16}5bx,,,,
{16}6<2[4:3],,,,
4,,,,
4,,,,
4,,,,
{16}4>8[4:3],,,,
7,,,,
6,,,,
5,,,,
{16}4V68[4:1],,,,
8V24[4:1],,,,
4V68[4:1],,,,
8,,,,
{16}4,,,,
C/3,,,,
C/7,,,,
1/C,,,,
{16}24,,,5,
4,,65,,
7h[8:1],,5,,
{24}7,5,6,5,6,,
{16}74,,,3,
4,,52,,
1h[8:1],,4,,
{24}2,4,3,4,3,,
{16}5,5,4h,1,
2h,6,5h,1,
3h,4,8h,6,
2h,1<5[4:1],5qq2b[4:2],,
{16},,,,
,,,,
5-8b[8:1],,,,
5/A2/A3/E3/D3f,,,,
{16}8bx-2[8:1]/1bx-7b[8:1],,,,
1bx/8bx,,,,
7x>1[8:1]/3,,6,5,
7-4[8:1],,4,,
{16}3-7[8:1],,1,,
8-5[8:1],,2,,
4xqq2b[8:1]*q1[8:1],,3,,
,,,,
{16}8b/3,,7,7,
5<8[16:3],,64,,
1xp4[16:3],,3,,
2,,1,,
{12}2,3,4,
53,4,5,
{16}6x-2[8:1]/4x-1b[8:1],,8,,
,,,,
{16}2bxq6[8:1]/3bxv6[8:1],,1bx/4bx,,
2bx/3bx,,,,
7x/5x,,6,6,
4-8[8:1],,3,,
{16}1-6[8:1],,2,,
5<8[8:1],,4,,
1xqq7[8:1],,2,,
{24}5,,,5,4,3,
{16}2bxq6[8:1]/8bx,,,,
8,,7,,
7x/5x,,3,3,
4,,52,,
{12}8,7,6,
57,6,5,
{16}6x-1b[8:1]/4h[24:1],,,,
6/A2/A3/D3f/E3,,,,
{16}2q7[8:1]/3bxq7[8:1],,,,
2bx/3,,,,
7bx>2[8:1]/5,,4,,
3p5[8:2],,,,
{16}13,,8x,,
6,,5x-2[8:1]/2-4b[8:1],,
1x,,25,,
{24},,,1,8,7,
{16}6/4q8[8:1],,,,
42,,,,
8x-4[8:1]/3x-8[8:1],,4,,
83,,,,
{12}1,2,3,
47,6,5,
{16}4xq8[8:1]/8xq5[8:1],,2,,
48,,,,
{16}1<6[8:1],,,,
1bx/A2f`E3,,,,
4x-8[8:1]/5-2[8:1],,3,,
54,,,,
{16}81,,7,7,
5<8[8:1],,64,,
1xqq7[8:1],,2,,
14,,,,
{16}8<5[8:1]/3>8[8:1],,,,
83,,,,
8x-3[8:1]/5-1[8:1],,6,,
58,,,,
{12}8,7,6,
58,1,2,
3x/7V16b[4:1],6,5,
{16}4V28-3V57[4:7]/7,,,,
{16},,,,
,,,,
6,,,,
,,,,
{16},,,,
,,,,
8,,,,
8xV61-5[4:7],,,,
{16}1,,,,
,,,,
4,,,,
3xqq4b[4:3],,,,
{16},,,,
,,,,
,,,,
,,,,
{16}5h[4:3]/3,,,,
,,E3h[384:1],,
,,,,
4h[8:4],,,,
{16},,6h[8:5],,
,,,,
,,5,,
,,,,
{16}E7h[384:1],,,,
,,B4h[384:1],,
,,,,
8pp6[4:3]/B1h[384:1],,,,
{16},,,,
,,,,
E5,,,,
B2,,
{8}
