&title=POSSESSION
&artist=TAG underground
&first=0.792
&des=wubbo
&lv_5=14.1
&inote_5=(185)
{8}2-4-6[8:1],4,2,1-5[8:1],3,1,7-3[8:1],5,
{8}7,4-7[8:1],2,4-8[8:1],,4<4[8:3],,2,
{8},,8xh[8:2],,,,2-4-6[8:1],4,
{8}2,8-4[8:1],5,8,3h[8:1],1x,8x,7x,
{8}2-6[8:1],8,2,1-5[8:1],3,1,8-2-4[8:1],6,
{8}8,6-2[8:1],3,4-2-8[8:1],,8>8[8:3],,6,
{8},,4xh[8:2],,,,8-6-4[8:1],1,
{8}8,1-5[8:1],7,1,8h[8:1],5x,4x,3x,
{8}2b-4-6[8:1],8,2,1-5[8:1],3,1,7-1-3[8:1],5,
{8}7,4-7[8:1],2,4-8[8:1],,4<4[8:3],,2,
{8},,C,,,,2-6[8:1],5,
{8}2,4-8[8:1],2,4,5xh[8:1],1x,8x,7x,
{8}2-4-6[8:1],8,2,1-5[8:1],3,1,8-2-4[8:1],6,
{8}8,6-2[8:1],3,4-2-8[8:1],,8>8[8:3],,6,
{8},,4xh[8:2],,,7-5-3[8:1],,7,
{8}2-4-6[8:1],,2,1-7-5[8:1],,1,3<6[8:1],,
{32}7bx,8,1,2,{8},,{32}2bx/Cf,1,8,7,{8},,,,
{8},,,,,,,4/3,
{8}5/4,,,2/B3,,,,,
{8},,,,6b/5,,8/1b,,
{8}B4/3h[8:3],,,Cf,,,,,
{8},,,,,,,6/B5,
{8}2/B3,,,7/B6,,,1/B2,,
{8},B1/2,,,7/B8,,5/B4,,
{16}B1/2b,,6,5,6,,3h[8:1],,2,,1,,5/4h[8:1],,7,,
{16}3,,6h[8:1]/5,,4,,7,8,7h[8:1],,5,,4,,3,,
{16}B8/7,,3,4,3,,6h[8:1],,8,,1,,4/5h[8:1],,2,,
{16}6,,3h[8:1]/4,,5,,4,3,4h[8:1],,2,,8,,3,,
{16}B1/2,,6,5,6,,3h[8:1],,1,,8,,5/4h[8:1],,7,,
{16}3,,6h[8:1]/5,,4,,7,8,7h[8:1],,5,,4,,3,,
{16}8/B7,,3,4,3,,6h[8:1],,8,,1,,4/5h[8:1],,2,,
{16}6,,3h[8:1]/4,,5,,4,3,4h[8:1],,2,,8,,6,,
{6}4b/3b,2/1,6/5,7/B8,5/6,1/2,
{6}3/B4,8/1,5/6,1/B8,3/4,7/6,
{6}1/B2,7/8,3/4,6/B7,4/5,8/1,
{6}3/B4,5/6,7/8,1/B2,4/5,8/7,
{6}4/B3,2/1,6/5,7/B8,5/6,1/2,
{6}3/B4,8/1,5/6,1/B8,3/4,7/6,
{6}1/B2,7/8,3/4,6/B5,4/3,8/1,
{6}3/B4,6/5,1/8,6h[8:4]/Cfh[8:4],,,
{1},,
{8}2,3,4,7,6,5,1,2,
{8}3,6,5,4,8,1,2,7,
{8}4,4,4,4,5/C,5,5,5,6/C,6,6,6,4/C,4,4,4,
{16}8,7,6,5,4,3,2,1,8/A3,A4,A5,A6,A7,A8,A1,A2,
{8}A3/Cf,,,{16}2,1,2h[16:3],,,3,,,5,,
{16}1b/2b,,6,5,6,,3h[8:1],,2,,1,,5/4h[8:1],,7,,
{16}3,,6h[8:1]/5,,4,,7,8,7h[8:1],,5,,4,,3,,
{16}B8/7,,3,4,3,,6h[8:1],,8,,1,,4/5h[8:1],,2,,
{16}6,,3h[8:1]/4,,5,,4,3,4h[8:1],,2,,8,,3,,
{16}B1/2,,6,5,6,,3h[8:1],,1,,8,,5/4h[8:1],,7,,
{16}3,,6h[8:1]/5,,4,,7,8,7h[8:1],,6,,5,,4,,
{16}7/B8,,3,4,3,,6h[8:1],,8,,1,,4/5h[8:1],,2,,
{16}6,,3h[8:1]/4,,5,,4,3,4h[8:1],,2,,8,,6,,
{16}Cf/1b,,7,8,7,,3h[8:1],,2,,4,,6,,2h[8:1],,
{16}B3,,5,,7h[8:1],,6,,4,,3/2h[8:1],,8,,6,,
{16}3/B4,,6,5,6,,3h[8:1],,2,,8,,6,,2h[8:1],,
{16}B1,,5,,7h[8:1],,6,,4,,3/2h[8:1],,4,,6,,
{16}B1/2,,7,8,7,,3h[8:1],,2,,4,,6,,2h[8:1],,
{16}B3,,5,,7h[8:1],,6,,4,,3/2h[8:1],,8,,6,,
{16}3/B4,,6,5,6,,3h[8:1],,2,,8,,6,,2h[8:1],,
{16}B1,,5,,7h[8:1],,6,,4,,3/2h[8:1],,5,,7,,
{6}2b/1b,3/4,7/8,6/B5,8/7,4/3,
{6}1/B8,5/4,8/7,4/B5,2/1,6/7,
{6}3/B4,6/5,2/1,7/B6,1/8,5/4,
{6}2/B1,8/7,6/5,3/B4,1/8,5/6,
{6}4/B3,2/1,6/5,7/B8,5/6,1/2,
{6}3/B4,8/1,5/6,1/B8,4/3,7/6,
{6}1/B2,7/8,3/4,6/B5,4/3,8/1,
{6}3/B4,6/5,1/8,4/B5,3/2,8/7,
{6}3b/B4f,5/6,1/2,6/B5f,8/1,4/3,
{6}1/B2f,5/4,8/7,4/B5f,2/1,6/7,
{6}4/B3f,5/6,1/2,5/B6f,1/8,5/4,
{6}8/B7f,1/2,6/5,3/B4f,1/8,5/6,
{6}4/B3f,2/1,6/5,7/B8f,5/6,1/2,
{6}3/B4f,8/1,5/6,1/B8f,4/3,7/6,
{6}1/B2f,7/8,3/4,6/B7f,4/5,8/1,
{6}3/B4f,6/5,1/8,5h[8:4]/Cfh[8:4],
