&title=Image
&artist=Magdalena Bay
&first=0.03
&des=焕然一新
&lv_5=13+
&inote_1=
&inote_5=(128)
{4},,,{32}1s5[8:12],,,,{4},,,,,,,{32},,,,8z4[8:6],,{4},,,
{16},,,,,,,
3,5,3,,46,,7,5,7>5[8:2],,3,,7,,,,
2,,7,1,7,,28,,3,1,3,,24,,6,5,7,,8,,2,1,3,,4>6[8:2],,3,5,4,,,,
5,,,,28,,7,1,7,,6,,2,4,2,,
3-5[8:1],,,,3,,,,7-1[8:1],,,,7,,,,
3-5[8:1],,,,3-7[8:1],,,,6,,,,6-8[8:1],,,,6-2[8:1],,,,6>7[8:4],,,,3p6[8:2],,,,,,,,,,,,
18,,,,3,4,3,,25,,6,,7-1[8:1],,,,2/7-5[8:1],,,,4/7-2[8:1],,,,3-1[8:1]/7,,,,3-5[8:1]/8,,,,3-8[8:1]/6,,,,3/7<4[8:1],,,,2q4[8:2]/7,,,,2/4<3[8:3],,,,7q4[8:1],,,,,,,,18,,6,,57,,2,1,3,,34,,8-3[8:1]*-5[8:1],1,7,,8,,,,
1^4[8:1],,,,1/5p1[8:1],,,,7<4[8:1],,,,7/2q3[16:4],,,,2,,,,6<1[8:1]*-4[8:1],,,,6,,,,28,,3,,1-5[8:1],,,,2<7[8:1],,,,6>3[8:1],,,,6,,,,1,,7,7,8,,2,1,3,8,4,7,5,6,4,5,
3-8[8:1],,,,3/7-4[8:1],,,,2<3[8:2]/7,,,,2,,,,
8-5[8:1],,,,8/4-1[8:1],,,,7>6[8:2]/4,,,,7,,,,
1-7[8:1],,,,2-6[8:1],,,,3-5[8:1],,,,8,,,,6,,2,2,8,,4,,4,6,3,5,2,4,1,3,
8bq2[8:3]*<2[8:3],,,,,,,,,,,,
1-5[8:1],,,,1/6>3[8:1],,,8,6,,7>2[8:1],,4-8[8:1],,7,,4,,,,
1-4[8:1]/6,,,7,1<6[8:1],,8,,1/3V51[16:3],,,,6<1[8:1]/3,,,,6,,,,3V15[16:3],,,,3/6V84[16:3],,,,6,,3,,2bq4[8:3]*<4[8:3],,,,,,,,,,,,18,,,,35,,4,6,4-2[8:1],,7-5[8:1],,4-8[8:1],,7,,4,,,,
1-3[8:1],,6,6,1,,8-5[8:1],,4v1[8:1],,8,,4<2[8:2],,,,4/2<4[8:2],,,,3h[8:5],,,,,,2,,1,,8,,7b/3bqq5[8:4],,,,7,,,,5q1[8:1]*-8[8:1],,,,,,,,2,,7,8,7,,5,,4-1[8:1]/6-3[8:1],,35,,46,,,,8,,6,6,2,,13,,2-7[8:1]/8-5[8:1],,17,,28,,,,8q5[8:2],,,,5>8[8:2],,,,8<5[8:1]*q5[8:1],,,,,,,,8h[16:3],,,4h[16:3],,,2h[16:3],,,6h[16:3],,,8-6[8:1],,,,
8,,3,3,5-1[8:1],,4-2[8:1],,5-7[8:1],,4,,5,,,,1-3[8:1],,7,7,1-5[8:1],,8,,1<6[8:1]/3,,2,,1/4>2[8:1]*-8[8:1],,,,4<6[8:1],,,,1<7[8:1]*-5[8:1]/4,,,,1>3[8:1],,,,16,,
,,
1b/7b,,6,6,2h[8:1],,6,,4h[8:2],,6,,8-2[8:1],,,,4/8-6[8:1],,4,,8-4[8:1],,4,,8,,2,,28,,,,
3h[8:1],,1,1,3h[8:1],,1,,5<3[8:2],,1,,5,,,,7-4[8:1],,,,3-8[8:1]/7,,,,3/6-1[8:1],,,,2v5[8:1]/6,,,,82,,,8h[16:3],,,6h[16:3],,,4h[16:3],,,2,,,,
8/2,,3,3,7h[8:1],,3,,5h[8:2],,3,,1-7[8:1],,,,5/1-3[8:1],,5,,1-5[8:1],,5,,1,,7,,71,,,,
1,,7,7,5,,46,,37,,1,8,3,5,4,6,
3h[8:3],,,,4,,6,5,7,5,6,,57,,6,5,7,,7,,5,,7,5,6,,6,5,7,4,6,3,5,2,4,,24,,2,4,3,,3,,24,,3,,35,,6,6,4,,2,4,3,5,,6,6,2,5,4,7,,,,3,4,3,,46,,7,5,7,,3,,2,8,2,,
1,,7,8,7,,28,,3,1,3,,24,,6,5,6,,7,,2,8,2,,3,,5,4,5,,6,,
6,5,7,,17,,2,8,3,7,4,6,
3-5[8:1],,,,3,,,,7-1[8:1],,,,7,,,,3p5[8:2],,,,5<3[8:3],,,,8-4[8:1],,,,,,,,
1-5[8:1],,,,1-3[8:1]/8-4[8:1],,,,18,,,,27,,,,34,,3,4,2,,5,,6,5,7,,2,4,3,5,
4V26[8:2],,,,6V84[8:2],,,,5-1[8:1],,,,,,,,3V15[8:2],,,,5V73[8:2],,,,3<1[8:2],,,,1-5[8:1],,,,5-3[16:2]*-7[16:2],,,,,,,,2v5[8:1]/8v5[8:1],,,,28,,,,
34,,3,4,2,,2,,5,4,6,,64,,,,
3q5[8:20]/7q1[8:20],,,,,,,,,,,,,,,,,,,,,,,,,,,,,,,,,,,,,,,,,,,,,,,,
3h[8:2],,,,4h[8:2],,,,5h[8:1],,6,6,4,7,3,5,2<7[8:1],,,,2-6[8:1]/6,,,,2/4q8[8:1],,,,4/1>4[8:1],,,,1/7p3[8:1],,,,1<6[8:1]/7,,,,1>4[8:1]/5-1[8:1],,,,1<6[8:1]/5,,,,1/5>2[8:1]*-1[8:1],,,,5,,,,2p6[8:1]/8p4[8:1],,,,,,,,35,,3,4,2,,2,,5,4,6,,46,3,3,3,
7b,,1,1,5,,24,,6,,24,,7<4[8:1]/8p3[8:1],,,,78,,,,12,,12,,3>8[8:1]/8<5[8:1],,4,,3/8-4[8:1],,,,8V24[8:1],,6,,8V64[8:1],,6,,8,,2,,3/6<3[8:2],,,,3>6[8:2]/6,,,,4-8[8:1],,,,4,,,,17,,26,,8,,2,2,6,,34,,7,,34,,1p4[8:1]/8<5[8:1],,,,18,,,,23,,23,,1-5[8:1]/4<7[8:1],,2,,14,,,,8h[8:1],,6,6,8h[8:1],,5,,8h[8:1],,4,,1<5[8:1]/3,,,,3>7[8:1],,,,5,,,,5,7,5,7,5,1,5,1,
7b,,3,3,1h[8:2],,2,,4,,2,,7<4[8:1]/8p3[8:1],,,,78,,,,12,,12,,3>8[8:1]/8<5[8:1],,4,,3/8-4[8:1],,,,8,,6,6,2,,18,,3-6[8:1]/7-2[8:1],,15,,37,,,,4V26[8:2],,,,7V15[8:2]/4,,,,7,,,,3<1[8:2],,2,,1>7[8:2]*q7[8:2],,,,,,,,,,,,8q5[8:1]/1>4[8:1],,,,81,,,,76,,76,,8-4[8:1]/5>2[8:1],,7,,85,,,,1h[8:1],,3,3,1h[8:1],,4,,1h[8:1],,5,5,8>4[8:1],,,,6<2[8:1],,,,4,,,,4,2,4,2,4,8,4,8,
3b<1[8:5],,,,2,,,,3,,,,4,,,,
5,1h,3,7h,1,5h,3,7h,5-1[8:1],,,,,,,,
7b<4[8:1],,1,1,7>2[8:1],,8,,7q3[8:1],,5,,4q8[8:1]/7,,,,4,,6,6,1,,78,,4-1[8:1]/5-8[8:1],,36,,45,,,,2-4[8:1]/7,,8,8,2-8[8:1],,6,,2-6[8:1],,4,,2-4[8:1]/4-7[8:1],,,,24,,,,75,,,,4,6,3,5,2,4,1,6,
2b>5[8:1],,8,8,2<7[8:1],,1,,2p6[8:1],,4,,5p1[8:1]/2,,,,5,,3,3,8,,21,,5-8[8:1]/4-1[8:1],,63,,54,,,,7-5[8:1]/2,,1,1,7-1[8:1],,3,,7-3[8:1],,5,,7-5[8:1]/5-2[8:1],,,,75,,,,2V84[8:2]/5V73[8:2],,,,25,,,,,,1,,
7b<4[8:1]/8b,,1,1,7p3[8:1],,8,,7>2[8:1],,5,,4p8[8:1]/7,,,,4,,6,6,1,,78,,2-7[8:1]/6v3[8:1],,48,,26,,,,2-4[8:1],,5,5,2-6[8:1],,8,,2-8[8:1],,5,,2-6[8:1]/5-8[8:1],,,,25,,,,7V14[8:2]/5,,,,7/4V26[8:2],,,,,,,,
2b>5[8:1],,8,8,2q6[8:1],,1,,2<7[8:1],,4,,5q1[8:1]/2,,,,5,,3,3,8,,21,,7-2[8:1]/3v6[8:1],,15,,37,,,,7-5[8:1],,4,4,7-3[8:1],,1,,7-1[8:1],,4,,7-3[8:1]/4-1[8:1],,,,74,,,,2V84[8:2]/5V73[8:2],,,,25,,,,,,1,,
1b<1[8:16],,,,,,,,2-7[8:1],,,,,,,,,,,,2-7[8:1],,,,,,,,,,,,1<1[8:16],,,,,,,,2-7[8:1],,,,,,,,8,,,7,,,6,,5,,,6,,,7,,,,8,8,7,,6,5,,,,,
1s5[8:9]/2>7[8:14],,,,,,,,,,,,,,,,,,,,,,,,,,,,,,,,,,,,
E
&inote_6=
