&title=ダンマクヒロイズム
&artist=まろん(IOSYS) feat. かなまい
&first=0
&des_5=弹幕英雄叩乙烯
&lv_5=14
&des=弹幕英雄叩乙烯
&clock_count=4
&inote_5=(188)
{1},
{8},,,,4,,6,,
{8}2xbq5[8:4]/Cf,,,,,,,,
{8}Cf/7xb<4[8:2],,,,,,{32}2x,1x,8x,7x,6x,5x,4x,3x,
{8}Cf/2xbpp8b[8:4],,,,,,,,
{8}7xb/Cf,,1/2,,5/6,,3/4,,Cf/8xbs4[8:4],,,,,,,,
{8}1xb/5xb,3xb-8[8:1]/7xb-4[8:1],,3xb/7xb,,,6p2<6>2<6[8:14]/2,,
{1},,4w8b[8:8],
{16},,,,,,,,2hx[16:1],,2hx[16:1],,8,7,6,5,
{8}1xb-3[8:1]/4xb-8[8:1],,1x/4x,,7v4[8:1],4V61[16:3],7x,2b-5[8:1],
{8},2-8[8:1],6,2x,7V52[16:3],7,7b/3b,,
{8}1xbq6[8:1],,1x/6x,,7<4[8:1],4s8[16:3],7x,1b>4[8:1],
{8},1,6x,6x,4q8b[16:2],4,2b/4b,,
{8}1xb-5[8:1]/3xb-8[8:1],,1x/3x,,6>3[8:1],7,6x/8x,1b<6[8:1],
{8},1/2,3x,3x,4/5,3/6,1b/8b,,
{8}2xbv5[8:1]/7xb>2[8:1],,2x/7x,,4<7[8:1],3,2x/4x,1bv4[8:1],,
{8}1/8,7,6x,3/5,3/5,1b/8b,,
{8}3x-1s5[8:4],,5,,6,,7,,
{8}8xqq4[8:4],,1,,2,,3,,
{16}5,6,7,8,5x,4,3,2,8>3[8:1],7,6,5,8xb,,,,
{16}6,4x,6,4,6,4x,6,4,6-3[8:1],,,,E1,,,,
{8}2x-6[8:1],3,4,,4x-8[8:1],5,6,,
{8}7p3[8:1],,3,,1v4[8:1],,5,,
{16}6,3,6,3,7x,2,7,2,8-4[8:1],1,8,1,8bx,,,,
{16}3,5x,3,5,3,5x,3,5,3-6b[8:1],,,,E1f,,,,
{8}7<4[8:1],3,7x,2,1>4[8:1],5,1x,6,
{8}7/5,,2x/1x,,4/3,4/3,,7x/8x,
{16}1,2,3,4,6x,7,8,1,5,4,3,2,8xb,7x,6x,5x,
{16}2,3x,2,3,2,3x,2,3,2-5[8:1],,,,E1,,,,
{8}7-3[8:1],5,7x,1,2-6[8:1],4,2x,8,
{8}7/5,7,7x/1x,,3/5,3,3x/1x,,
{8}2xb-7[8:1]/6xb-3[8:1],2x/6x,,,1/5,1v4[8:1]/5v8[8:1],,1xb/5xb,
{8},2/6,,3/7,3/7-4b[8:1],,E1f/7bx,,
{8}2q6[8:1],2,6,,{16}7x/8x,,,5/6,,,3/4,,
{8}1v7[8:1]*-6[8:1]/2,,1bv3b[8:1]*-4b[8:1],,1b,,B5/A5/Cf/B8/B2/A8/A2,,
{8}7<4[8:1],7,3,,{16}1x/2x,,,3/5,,,5/6,,
{8}1v3[8:1]/7q3[8:1],,1bp5b[8:1]/7bv5b[8:1],,1b/7b,,A6/A4/B6/B4/Cf/B2/B8/A2/A8,,
{8}1hx[8:1],,2/8,,8hx[8:1],,1/7,,
{8}3/4-2[8:1],,5x,,5-7[8:1]/6,,4x,,
{8}3bx,,2x/8x,1,7bx,,6x/8x,5,
{16}4xb/B7,,,6xb/B2,,,3xb/5xb,,8xb-4b[8:1]/C,,,,,,,,
{8}1>4[8:1],1,4,,{16}5bq1[8:1]/6bv8[8:1],,,5b/6b,,,,,
{8}2,3,7,6,{16}4bv1b[8:1]/5bp8b[8:1],,,4b/5b,,,,,
{8}7>2[8:1],6,2,,{16}3bv8[8:1]/4bv1[8:1],,,3b/4b,,,,,
{8}2,7,1v6b[8:1]/8-5b[8:1],,8bxv3[8:1]/1bx-4[8:1],,8bx/1bx,,
{8}6hx[8:1],,7hx[8:1],,8hx[8:1],,1hx[8:1],,
{8}3h[8:1]/4hx[8:1],,2h[8:1]/5hx[8:1],,1h[8:1]/6hx[8:1],,8h[8:1]/7hx[8:1],,
{8}2b-7[8:1]/6b-3[8:1],,,,1/5,1-4[8:1]/5-8[8:1],,5b/1b,
{8},3/7,6<5b[16:4]/2,,6b/Cf,,,,
{8}7bV51[16:3],8,1/7,3,{16}2hb[16:3],,,8hb[16:3],,,6hb[16:2],,
{8}4bp8[8:1],5,4/6,,7bp3[8:1],1,7/3,,
{8}2bV48[16:3],1,8/2,6,{16}7hb[16:3],,,1hb[16:3],,,3hb[16:2],,
{8}5b>2[8:1],6,7/5,,1b<6[8:1]/8,2,3/1,,
{8}4V61b[16:4]/5,,1bx/4bx,2x,3x-7[8:1],,3b/7b,,
{8}6/8V63[16:4],,3bx/8bx,2x,1x-5b[8:1],,1b/5b,,
{16}A6,E7,E8,A8,A3,E3,E2,A1,A6,A5,A4,A3,Cf,,,,
{8}7x-4b[8:1]/1x-5b[8:1],,7x/1x-7[8:1]*-3[8:1],,1bxw5[8:1],,1bx,,
{8}3b-8[8:1]/7bv4[8:1],,,,{16}1b/5b,,6,5,,3,4,,
{8}2bV84[16:3]/5,1,8,7bV51[16:3],6,5,4b,,
{8}3b-8[8:1]/8b-5[8:1],,,,{16}1b/4b,,2,3,,6,5,,
{8}8bV26[16:3]/7,1,2/8,3,4bV62[16:3],5,6/4,7,
{8}8-5[8:1],,8x/5bx,,1-4b[8:1],,1x/4bx,,
{8}7,7x-5[8:1],,7x/8b-4b[8:1],,1b-3[8:1]/8x,,1x,
{16}A6,E7,E8,A8,A4,E5,E6,A6,A2,E3,E4,A4,A8,E1,E2,A2,
{16}6,7,8,1,2,3,4,5,6-3[8:1]/2-7[8:1],,,,2x/6x,,,,
{8}1bs5[8:4]/5b,3b/7b,,6x,,8x,,,
{8}8bz4[8:4]/4b,2b/6b,,3x,,1x,,,
{32}2b,3,4,5,6,7,8,1,2b,3,4,5,6,7,8,1,2b,3,4,5,6,7,8,1,2b,3,4,5,6,7,8,1,
{32}6b,3x,4x,5x,6x,7x,8x,1x,6b,3x,4x,5x,6x,7x,8x,1x,6b-2b[8:1],3x,4x,5x,6x,7x,8x,1x,6b,,,,,,,,
{8}4xw8[8:8],,,,,,,,
{8},,,,6hx[16:1],6hx[16:1],{16}4,3,2,1,
{16}7xb-5[8:1]/8xb-4[8:1],,,,7/8,,,,6x,,2,2,4,,1xb-5[8:1]/7xb,,
{16},,1/8-4[8:1],7,6,,1/8,2,3,,2x/5x,,7b/8b,,,,
{16}1xbv4[8:1]/6xb-1[8:1],,,,6/1,,,,3x,,8,8,5,,2xb/7xbv4[8:1],,
{16},,1p5[8:1]/7,2,3,,1/8,7,6,,3x/4x,,1b/2b,,,,
{16}1bx/7bx,,2,4,3,,7,5,6x,5,7,,4/5,,2b/8b,,
{16}7,,2,1,3,,6,8,7-3[8:1],,5x/3x,,7b/1b,,,,
{16}2bx/4bx,,6,5,7,,1,8,2x,7,3,6,4,5,2h[8:1],,
{32}1b,8,7,6,5,,,,8b/7b,1,2,3,4,,,,5x-1b[8:1],,,,6x,,,,7b/5b,,,,,,,,
{16}8,,3,,6,5,7,4,5,,1,,4,3,5,2,
{16}6,,7,,3,6,4,5,1b,,3b,,5b,,7b,,
{8}2-7-4[8:2],5,4-1-6p2b[8:3],,6x,,7x,,
{8}1bx/8bx,{16}6,5,6,,7bx/4bx-7[8:1],,,,3x/4x,,2,,,,
{16}1/8,,7,5,6-8[8:1],,{8}8-4[8:1]/2,6/4,,3,2,
{16}1/5,,2,4,3v1[8:1],,7/5,,3,,{24}8,7,6,5b,,,,,,
{16}2b/4b,,3/5,,4/6,,5/7,,8b-4[8:1],,3-7[8:1],2,1/8,,3,,
{16}6xbz2[8:2],,,,,,,,1bx<2[8:2],,,,,,,,
{8}7-3[12:1],1b/5b,,2-6[12:1],4b/8b,,1,3b-7b[12:1]/7b-3b[12:1],
{8},,2bq6<6<8[8:6]/6bp2<2<8[8:6],,,,,,
{8},,D8/A8f/D1,,,,,,
{1},,
E
