&title=太陽曰く燃えよカオス
&artist=後ろから這いより隊G
&first=0.67
&des=笨蛋太阳总是太耀眼 黑暗才更美丽ᶻz ₍^_ ̫ _^₎
&lv_5=13+
&inote_5=(143)
{16}1>4[8:1],7,2,7,,,,,6<1[8:1],5,7,5,,,,,{8}42,34,56,47,3>8[8:1]/8<5[8:1],,3b/8b,,
4w8[8:1],,,,1pp3[8:1]/7qq5[8:1],,,,6w2[8:1],,,,1qq7[8:1]/3pp5[8:1],,,,8w4[8:1],,,,5pp7[8:1]/3qq1[8:1],,,,26,34,56,47,3/8,B3/E3,B8/E1,,
3<5[9:1],5,6h[8:1],,7h[8:1]/6h[8:1],,6h[8:1]/5h[8:1],,6,5,4v7[8:1]*-6[8:1],3,4>1[8:1],,,,5,{16}2,2,4<7b[8:1],,3,,3h[16:3],,,,3,,8,,4,,7,7,5qq5[12:3],,6,,5pp5[12:3]/4,,,,,,,,{8}3>1[8:1],4,5h[8:1],,8h[8:1]/6h[8:1],,5h[8:1]/7h[8:1],,7,6,5<8[8:1],4,3v8[8:1]*-1[8:1],,,,6,{16}1,1,7<4b[8:1],,2,,2h[16:3],,,,2,,3,,45,,6,,57,,6,,4/5,,3,,25,,16,,{4}7>5[12:7]/8>5[12:7],,,{8},,6<4[16:5],,3,,5<3[16:5],,2,,4pp1[12:6]*pp2[12:6],,,,,,,,{16}81,,2,4,3,,5,,4v2[8:1]/6v8[8:1],,,,4b/6b,,,,{8}7b<4[8:1],4,3h[8:1],,2h[8:1]/3h[8:1],,7h[8:1]/6h[8:1],,7,6,5pp5[12:3],4,5qq5[12:3]/3,,,,{16}1,,6,6,5>2b[8:1],,8,,7h[16:3],,,,7<5[9:1],,1,,2,,2,4,3-7[8:1],,8,,3-1[9:1]*-5[9:1],,,,,,,,{8}6<1[8:1],5,4h[8:1],,1h[8:1]/3h[8:1],,8h[8:1]/6h[8:1],,6,5,4-6[8:1],3,4-7[8:1]/2h[8:1],,4/3h[8:1],,{16}3,,8,8,2>5b[8:1],,1,,6h[16:3],,,,6<8[9:1],,5,,4,,3,3,1,,2,,{8}43,5,46,37,
8qq3[12:7]/2qq3[12:7],,,,,,,,{16}34,,2b,,45,,2b,,56,,2b,4,3,,5,,4qq7[12:7]/6qq7[12:7],,,,,,,,,,,,,,,,8,,7,7,4-8[8:1],,5,,4v2[8:1]*v6[8:1],,,,,,,,{8}5<1[12:3],,1>5[12:3],,5<1[12:3],,1,2,3h[8:4],2,4,5,6h[8:2],4,5,6,4w8[8:1]/7,,4b,,1pp3[8:1]/7qq5[8:1],,1b/7b,,2h[12:6]/6h[12:6],,,,,2b/6b,B8f/E1/E8/B7/B1/D8/D1,,
7<4[8:1],,{32}8b,1,2,3,,,,,7<4[8:1],,,,,,,,{32}8b,1,2,3,
{8},5,16,78,12,8>3[8:1]/7<4[8:1],,87,,
3V15[12:3],4,5,6,7-4[8:1]*-3[8:1],,7,,34,6/2-5[8:1],,5bV37[12:3]/2bV47[12:3],,,,,
2>5[8:1],,{32}1b,8,7,6,,,,,2>5[8:1],,,,,,,,{32}1b,8,7,6,
{8},4,87,65,43,1<6[8:1]/2>5[8:1],,12,,8-4[8:1],1,2-7[8:1],3,6-1[8:1],,4-1[8:1]*-2[8:1],,4b-7[8:1]*-6[8:1],,4bw8[8:1],,4b,,7x/1x,,7<4[8:1],,{32}3b,2,1,8,,,,,4<7[8:1],,,,,,,,{32}8b,1,2,3,{8},8,12,34,56,3>8[8:1]/7<4[8:1],,37,,
1-6[8:1],8,6-2[8:1],5,4-7[8:1]*-8[8:1],,4,,78,2/6-1[8:1],,1bV74[12:3]/6bV84[12:3],,,,,
3>8[8:1],,{32}7b,6,5,4,,,,,8>3[8:1],,,,,,,,{32}4b,5,6,7,{8},4,{16}7,5,{8}6,28,7<4[8:1]/3>8[8:1],,73,,1-5[8:1],8,7>2[8:1],6,3<6[8:1],,8-2[8:1]*-6[8:1],,8b-3[8:1]*-5[8:1],,8bw4[8:1],,8b,,2x/6x,,
{16}1>4[8:1],7,2,7,1b,,,,6<1[8:1],5,7,5,6b,,,,{8}42,34,56,4<7[8:1]/7,8/3>8[8:1],4b,3b,
