&title=Speedcore 300
&artist=Hypernite Industries
&first=0.13
&des=speckles
&lv_5=14+
&inote_5={4}(300)4/5,5,5/3,5,
5/2,4,{8}3,4,3,4,
{4}3,1,1/6,1,
1/5,2,{8}6,5,6,5,
{4}6,3,3/5,3,
3/6,7,{8}8,1,8,1,
{4}8,4,4/5,4,
{8}4,5,4,5,4,6,5,6,
{2}5/7-1[4:1],3-5[4:1],
7-4[4:1],{8}2,2,2,2,
{2}2/7<5[4:1],3>1[4:1],
{4}8<6[4:1],{8}5,5,{4}5,4,
{2}4v2[4:1],8v6[4:1],
3v1[4:1],{8}6,6,6,6,
6/4,5,4,6,5,6,4,5,
4/6,4,4,4,4/5,4/5,4/5,4/5,
{4}4/5,5/6,3/4,8/1,
6/5,5/6,2/1,{8}3/4,3/4,
{4}4/3,6/7,2/1,{8}6/5,6/5,
{4}6/5,8/1,3/4,{8}7/8,7/8,
{4}7/8,4/6,5/3,7/1,
2/6,3/1,6/8,{8}5/3,3/5,
{4}5/3,7/1,2/4,5/7,
{8}4/6,4,3/5,5,4/6,4,5/3,5,
{4}1/2,7/8,5/6,4/3,
1/8,4/5,2/3,6/8,
{8}1/7,1,8/2,8,1/7,1,2/8,8,
1/7,1,8/2,8,1/7,1,7/2,7/2,
{4}7b/2b,1,1,1,
1,2,2,2,
2,3,3,3,
3,8h[8:1],8h[8:1],8h[8:1],
4-2[8:1],8-6[8:1],5-3[8:1],1-7[8:1],
6-4[8:1],2-8[8:1],7-5[8:1],3-1[8:1],
8-6[8:1],4-2[8:1],1-7[8:1],5-3[8:1],
2-8[8:1],6-4[8:1],3-1[8:1],{8}7x,7,
{4}7b-1[8:1],3-5[8:1],6-8[8:1],2-4[8:1],
5-7[8:1],1-3[8:1],4-6[8:1],8-2[8:1],
3-5[8:1],7-1[8:1],{2}2-4[8:1],
{8}6,5,7,3,8,3,8,3,
{4}2-4[8:1]/1-5[8:1],2/1,7-5[8:1]/8-4[8:1],8/7,
2-7[8:1]/3-6[8:1],2/3,5-8[8:1]/4-1[8:1],4/5,
7-2[8:1]/6-3[8:1],7/6,1>4[8:1]/8<5[8:1],8/1,
{8}2,2,{4}2,6,{8}6,6,
{4}6/2-7[8:1],6-3[8:1],1-4[8:1],5-8[8:1],
{2}3>7[4:1],5,
{4}7-3[8:1]/8-4[8:1],7/8,,{16}5x,4x,5x,4x,
{4}5x,6,{8}6,{4},{16}4x,5x,
{4}2b/6bx,3/5,4/6,5/7,
2/4,7/8,4/2,6/1,
3/7,5/4,7/8,4/1,
{8}3,5,2,6,3,7,{16}4,5,4,5,
{4}4b,6/4,3/5,1/6,
4/7,2/5,4/7,5/6,
3/7,8/1,1/8,5/4,
{16}2,1,2,1,{4}2,5/6,7/3,
4/5,5/6,6/7,7/8,
1/8,1/2,2/3,3/4,
{8}5,4,6,3,7,2,8,1,
7,2,6,3,5,4,{4}5,
{16}4,3,2,1,8,7,6,5,4,3,2,1,8,7,6,5,
4,3,2,1,8,7,6,5,4,3,2,1,8,7,6,5,
{48}{24}4/8x,1x,2x,3x,4x,5x,6x,7x,8x,1x,2x,3x,4x,5x,6x,7x,8x,1x,2x,3x,4x,5x,6x,7x,
{96}{32}8x,1x,2x,3x,4x,5x,6x,7x,8x,1x,2x,3x,4x,5x,6x,7x,8x,1x,2x,3x,4x,5x,6x,7x,8x-4[8:1],1x,2x,3x,4x,5x,6x,7x,
{1}8x/4bx,
,{16}6,
5,6,5,{4}6,{8}4h[4:1],{4},{8}4h[8:1],
6h[4:1],{4},{8}6h[8:1],{4},{16}2,1,2,1,
{8}2/8xh[4:1],{4},{8}8h[8:1],{4},7h[4:1],
{8},7h[8:1],{4},6h[8:1],6h[4:1],
,2h[4:1],{8},2h[8:1],{4},{8}5h[4:1],
{4},{8}5h[8:1],{4},{16}7,8,7,8,
{4}7,5/3h[8:1],6/3h[4:1],5,
7/2h[4:1],{8}6,2h[8:1],{4}5,5/7h[4:1],
5,2/5h[8:1],3/5h[4:1],1,
{16}3,4,3,4,{8}3,6h[8:1],,{16}8,7,8,7,8,7,
{4}8/6xh[8:1],4/6h[4:1],2,5,
4/2h[8:1],2h[4:1],,3h[4:1],
{16}4,3,4,3,{4}4,3h[8:1],3h[4:1],
{16}8,7,{8}6,{4}4h[8:1],4h[8:1],{16}1,8,1,8,
{8}1,6,{4}5,{8}4,3,,4,
5,{4},{8}7,{4}8,{8}5,3,
5,7,{4}8,{8}2,1,,4,
{4}5,{8}6,6,{4}6,{8}3,5,
3,7,{4}8,{8}5,6,,4,
{4}3,{8}1,2,4,5,4,3,
{4}5,6,6/4h[8:1],4h[4:1],
7,{8}8,8,{4}8,7,
3/4,5,7,1,
3/4,5,{8}7,7,{4}7,
5/6,3,5,{8}3,3,
{4}3/7,4,6,{8}8,8,
{4}8/4,6,8,2,
4/6,2,4,{8}6,6,
{4}5,4,6,5,
{16}4,3,{8}2,{4},{8}7,8,{4},{16}5-1[8:1],
4,{8}3,,3,{4}3,{16}8-4[8:1],7,{8}6,
,5,{4}5,5-7[8:1],{16}4,3,2,1,
{4}8b,{16}2-4[8:1],1,{8}8,,5,{4}5,
{16}6-1[8:1],5,{8}4,,3,{4}3,{8}4/1-5[8:1],4,
{4}4,{8}3-8[8:1],3,,6,{4}6,
{16}6-1[8:1],5,{8}4,,2,{4}2,3-8[8:1],
5b,{16}4-8[8:1],5,{8}6,,2,{4}2,
{16}1-5[8:1],2,{8}3,,7,{4}7<5[8:1],{16}8,1,2,3,
{8}4b,{16}8-4[8:1],1,{4}2,{8}2,2,,{16}5-1[8:1],6,
{4}7,{8}8,8,,8-6[8:1],,{16}1,2,
3,4,{8}5b,,{16}3-1[8:1],4,{4}5,{8}8,8,
,{16}7-4[8:1],8,{4}1,{8}2,2,,1/4-8[8:1],
1,1,,2-5[8:1],{4}2,{8}6,6,
,7-4[8:1],{4}7,{8}3,3,,2-5[8:1],
2,{4},{8}1-5[8:1],{4}1,{8}3,3,
,{16}4-8[8:1],3,{4}2,{8}5,6<8[8:1],,{16}3,2,
{4}1b,1,2,3,
4,1,2,3,
4,1,2,3,
4,1,2,{32}3,4x,5x,6x,7x,8x,1x,2x,
{4}3bx,8,7,6,
5,8,7,6,
5,8,7,6,
{32}5,4x,3x,2x,1x,8x,7x,6x,{4}5x,5,{32}5,6x,7x,8x,1x,2x,3x,4x,
{4}5bx,6,7,8,
1,2,3,4,
5,6,7,8,
1,2,3,{32}4,5x,6x,7x,{8}8x,
{4}2,7,2,7,
3,6,3,6,
{8}4,5,4,5,4,5,4,5,
{16}1,2,3,4,5,6,7,8,1,2,3,4,5,6,7,8,
{4}1b/5-2[8:1],1-6[8:1],4-1[16:1],8-5[16:1],
3-8[8:1],7-4[8:1],2-7[8:1],6-3[8:1],
1-4[16:1],5-8[8:1],2-5[8:1],6-1[8:1],
,{8},7,4,6,3,5,
{4}1>3[8:1],8<6[8:1],1>3[8:1],8<6[8:1],
5v8[8:1],3,,3,
5h[8:1],5h[8:1],5h[8:1],{16}3,6,3,6,
{4}3,{16}5,4,5,4,5,4,5,4,{32}5,6x,7x,8x,{8}1x,
{4}4b/5h[8:1],6h[8:1]/4h[8:1],3h[8:1]/5h[8:1],4h[8:1]/2h[8:1],
4h[8:1]/5h[8:1],3h[8:1]/7h[8:1],{8},{16}6,7,{8}8,4,
{4}4/6h[8:1],3h[8:1]/1h[8:1],5h[8:1]/6h[8:1],{8}8h[8:1]/7h[8:1],4h[8:1]/2h[8:1],
,6h[8:1]/5h[8:1],,4h[8:1]/2h[8:1],{4},{8}7/5,7/5,
{4}7b/5,4/6,3/5,2/4,
1/3,2/8,6/8,{16}5,6,5,6,
{4}5,3/5,5/7,5/3,
{32}8x,7x,6x,5x,{16}4x,3x,2x,1x,8x,7x,6x,5x,4x,3x,{4}2x,
{16}5,6,5,6,{4}5,{16}1,1,1,1,1,1,1,1,
{4}1,{2},{16}4,3,4,3,
{4}4,5,{8}3,{16}7,6,{4}5,
4,{8}7,6,4,{16}6,5,{4}6,
2/1,5,4,{16}6,6,6,6,
6,5x,4x,3x,{4}2x,{8}4,4,{4}4,
3/5,6,7,{16}8,8,8,8,
8,7x,6x,5x,4x,3x,2x,1x,{8}8x,{4},{16}7,8,
{8}7,{4},{8}5/6,{4},4/5,
{8},5/6,{4},4/5,{8}1/2,1/2,
1/2,{4},{8}4/3,{4},5/6,
{8},7/8,{4},{16}1,2,1,2,1,8x,7x,6x,
{8}3/5,{4},{8}4/5,{4},6/7,
{8}4/5,{4},{8}7/8,{16}2,3,{8}4,{4}6/1,
{8}2/5,{4},{8}3/4,{4},5/6,
{8},3/4,{4},{16}8,7,8,7,8,7,8,7,
{1}8b,
