&title=杀死那个石家庄人
&artist=万能青年旅店
&first=0
&des=STEXxx
&lv_5=14
&inote_5=(186){4},{1},,,,,,,,{4},,,{2}3h[2:1],
{4}6,5,
4,5,6,5,
4,3h[2:1],5,6,
7,8,2,3,
4,5,6h[2:1],4,
3,4,5,4,
{2}3h[2:1],{4}1,8,
7,6,5,3,
{2}2h[2:1],{4}1,8,
7,8,1,8,
7h[2:1],6,5,4,
7,8,1,2,
3h[2:1],4,5,6,
7,6,5,6,
{2}7h[2:3],1h[2:5],
,,,,{1}8>4[1:1],
{2}7h[2:1],1>5[1:1],
,6h[2:1],
8h[4:1],7/1q4[1:1],
,5h[2:1],
{4},6<3[1:1],,,{2}4h[4:1],
{4}5,6,
7,8,{2}1pp4[1:1],
,5h[2:1],
{4},6pp3[1:1],,,{2}1h[4:1],
{4}2,3,
8,7,{2}6V84[1:1],
,3,
2h[4:1],1h[2:3],
,,8-4[4:31],
1h[4:1],
7h[4:1],{4}4,5,
6,7,8,7,
6,4,5,6,
7,8,{2}1,
{4}2,3,5,6,
3,2,8,1,
2,3,5,4,
{2}3h[4:1],1xp5[1:1],
,4x<1[1:1],
,2x>8[1:1],
,8x<4[8:7],
,1x<5[4:3],
,1h[4:1],
{1}8w4[4:3],
{4},,5/3,1,
6/4,8,2/8h[4:1],1<6[8:3],
{2}2,{4}4h[4:1],5,
6/4<1[4:3],7h[4:3],,,,,4/6,
8,
3/5,{16}1,7,{8}1,{4}1xh[4:1],8>3[8:3],
{2}7,{4}5h[4:1],4,
3/5>8[4:3],2h[4:3],,,,,5/3,
1,
6/4,{16}8,2,{8}8,{4}8h[4:1],1<6[8:3],
{2}2,{4}4h[4:1],5,
6/4<1[4:3],7h[4:3],,,,,4/6,
8,
3/5,{16}1,7,1,7,{4}1h[4:1],8>3[16:5],
{2}7,{4}5h[4:1],4,
3/5>8[4:3],2h[4:5],,,,,{2}4h[2:1],
5h[2:1],7,
8/2h[4:1],4/3h[4:1],
6/2h[4:1],{4}7/3,2,
1/8,7,6/3,2,
3/1,8,{2}3/7V14[4:3],
3h[4:1],2h[4:1],
1h[4:1]/4h[4:1],{4}5/2,6,
7/5,8,7/1,6,
5/2,1,{2}8/4V27[4:3],
6h[4:1],5h[4:1],
4h[4:1]/7h[4:1],{4}1/6,2,
3/5,6,7/2,1,
8/2,3,{2}4/8V63[4:3],
3h[4:1],2h[4:1],
1h[4:1]/3h[4:1],{4}5/2,3/6,
4/7,8,1/7,{8}6/2,4,
{4}5b/3b,5/2-7[4:1],{2}5>1[2:1],
1<5[2:1],{4}2-6[4:1],2,
{2}1<5[2:1],5>1[2:1],
8h[2:1],{4}7,1/6h[4:1],
2,3/5-1[4:1],{2}3/5,
{4}5v2[4:1],5,{2}4h[4:1],
{4}5<3[4:3]*V71-3[4:3],5,,,,5,
4h[2:1],6h[2:1],
,5,5/3,2h[4:1],
4h[4:1],2,3,5/3,
6h[4:1],4h[4:1],6,5,
5/3,3/2,1/8,7/6,
5/4,6/3,7/2,8/1>1[8:7]b,
8,8,,,{2}7bh[2:1],
{24}1b,2x,3x,4x,{12}5xh[24:1],{24}8bx,1x,2x,3x,4x,5x,
7bx,8x,1x,2x,3x,4x,7bx,8x,1x,2x,3x,4x,{32}1bx,2x,3x,4x,5x,6x,7x,8x,{4}1bx,
3/4,1/8,{8}7/4,5,6,4,
5/2,3,5,4,6,6,1,1,
{16}7h[16:3],,,4,{4}4h[4:1],{16}5,,,4/6,6/4,,,4/6,
6/4,,,4/6,6/4,,,3/5,5/3,,,3/5,5/3,,,5/3,
5/3,,,5/3,{4}5/3,{8}6/2,3,5,4,
5/3,4,5,3,6/2,7,1,8,
{16}1h[16:3],,,5,{4}5h[4:1],3b,7b/5b,
7b/1b,{8}5b/3b,{16}4,5,{8}3,{16}1,2,{8}8,3,
7/4,6,5/3,2,{4}1/7-4[16:3],7/3-6[16:3],
3/1-5[16:3],1/2<7[16:3],2,{8}6,6,
5,5,4,4,{16}3/5,,,5/3,3/5,,,5/3,
3/5,,,5/3,3/5,,,6/4,4/6,,,6/4,4/6,,,4/6,
4/6,,,4/6,{4}4/6,8/2-5[6:1],2/6-3[6:1],
6/8-4[6:1],8/7>2[6:1],7/3-7[6:1],3/5,
{8}8/4,1,{4}2/6h[4:1],3b,2b/4b,
2b/8b,{8}4b/6b,{16}5,4,{8}6,{16}8,7,1,6,2,5,
{12}3,4,2,7,4,5,{4}3>1[8:1],{8}3,4>2[8:1],
,4,{4}5>3[8:1],{8}5,6>4[8:1],,6,
{4}7w3[8:1],7,6<8[8:1],{8}6,5<7[8:1],
,5,{4}4<6[8:1],{8}4,3<5[8:1],,3,
{4}2w6[8:1],2,1>3[8:1],{8}1,8>2[8:1],
,8,{4}7>1[8:1],{8}7,6<8[8:1],,6,
{4}5v8[8:1]*-2[8:1],5,7<5[8:1],{8}7,8<6[8:1],
,8,{4}1<7[8:1],{8}1,2<8[8:1],,2,
{4}3-8[8:1]*-7[8:1],3,5b/2h[2:1],{8}7,8h[8:3],
,4,{4}5h[2:1],{8}1,2h[8:3],,4,
{4}3-8[8:1]*-6[8:1],3,4b/7h[2:1],{8}2,1h[8:3],
,5,{4}4h[2:1],{8}8,7h[8:3],,5,
{4}6q2[8:1]*<1[8:1],6,{8}3,4,5/3,6,
7/4,8,2/1,3,{16}4,5,{8}3,2,1,
8/7,{16}1,2,{8}3h[8:1],4,2/5,3,3,5/2,
4,4,2/5,2/4,{16}2,4,3,5,4,6,5,6,
5,7,4,8,3,1,{8}2,{16}1,8,7,6,{8}5-7[8:1],3,
{4}5x/1x,6/2,{16}5/1,8,7,6,{8}5/1-7[8:1],7/3,
{4}1x/5x,2/6,{16}5/1,8,7,6,{8}5/1-7[8:1],7/3,
{2}5x/1x,{4}5-3[8:1],5/7h[4:1],
{8}2,3,{4}4/5-1[8:1],5/3-6[8:1],3/8-4[8:1],
8,5v2[8:1],6/5,5<3[2:1]*V71-3[2:1],
,,,4,
5/2,{8}3,3,4,{16}6,4,{8}5,{16}2,4,
{8}3,3/5,6,7/3,{16}8/4,5,6,7,{8}4/8-2[8:1],2/6,
{4}8x/4x,3/7,{16}8/4,5,6,7,{8}4/8-2[8:1],2/6,
{4}8x/4x,7/3,{16}5/1,8,7,6,{8}1-4[8:1]/5-8[8:1],8/4,
{2}1x/5x,{4}3h[8:5],1,
{8}4,5,6/2,7/1,{4}8-4[8:1],8b/2,
5/1h[8:3],6,7/2-6[8:1],2b/8,
{2}1>6[4:1],{4}2,{8}3,5,
4,6,3,7,{16}2,8,2,8,3,7,3,7,
4,6,4,6,5,5,5,5,{4}5b<2[4:1],3v6[8:1],
3,4/7,4<1[4:1],2v5[8:1],
2,3/6,3<8[4:1],1v4[8:1],
1,2/5,4/7h[4:1],{8}8,1/6h[4:1],
,5,{16}4,7,4,7,{4}4-8[8:1],4/6-3[8:1],
6/1-5[8:1],1/7,4v7[8:1],3/4,
8/4>6[8:3]*V28-6[8:3],,,1,
8/3h[4:1],{8}4,5/2h[8:1],,8/6,,5,
6/4,5,4/2,1,{4}5/8<3[16:5],8/6,
7h[4:1],6,4h[4:1],1>6[16:5],
1/3,2h[4:1],3,5h[4:1],
6,8,7/1,{8}6,7/5,
,3,{16}4,2,{8}4h[16:1],{4}1-5[8:1],8/1b,
7V53[8:1]*-4[8:1],7,2,1-5[8:1],
6/1b,7-3[8:1],7b/8b-4[8:1],1b-5[8:1],
2b-6[8:1],{24}6,7,{6}8,{48}1,,,8,,,{16}7,6,1qq6[2:1]b,2,3,4,
{2}1b,{8}3,5,5,3,
{4}6h[4:1],{8}3,5,5,3,6,6,
4,3,5,6,{4}7h[4:1],4,
{16}4,5,3,4,{4}2,{8}1/3,8,3/7,2,
5/1,6,3/7,2,{4}1-6[8:1],{8}2,3,
{4}4<1[4:1],7h[4:1],{8},,7/2,5,
6/3,4,5/3,2,1-5[8:1],7,7,8-4[8:1],
2,2,3-7[8:1],5,5,{16}6,5,4/8,,,2,
6,2,6,4,7,4,{8}7,{4}3<6[8:1],2,
7>2[8:1],5,{8}4>1[8:1],6,7,7,
8<5[8:1],1,2,2,{4}3>7[16:3],{8}6,5,
4,7,6,5,{4}4<8[16:3],{8}1,2,
3,{16}1,2,{8}3,5/1,{4}2>5[8:1]/6<1[8:1],2/6,
{8}3/7,{16}4,6,{8}4,3,5,3,5,2,
{16}8,1,{8}8,5/7,4,3/6,{16}4,6,{8}5,{16}5,6,
4,5,3,4,2,5,1,6,8,7,5,6,1,4,3,8,
3,5,2,6,5,8,3,5,{4}1,1V35[16:3],
6,{8}7,7,8V64[16:3],8,1,2,
{4}2-6[8:1],{8}7,8,{16}1h[16:3],,,6,6h[16:3],,,4,
4h[16:3],,,2,{8}2h[16:3],{24}1x,8x,7x,{4}6x,{8}2/6,{16}3,5,
{8}4h[8:1],5,6,7,{4}2/8<5[16:3],{8}4,3,
2-6[8:1],{16},,,,7,8,{4}1>4[16:3],{8}4,{16}6,7,
{8}8,2/3,{24}7,6,5,4,,,2/6,3,4,5,{48},,,,{16}7/6,,,1/8,
,,{8}7/1,6/1,5/1,4/1,1/5,{24}6,7,8,1,2,3,
4/7,8,1,2,3,4,{12}5,1,8,{8}5/7,{16}1,2,{8}3/5,6/4,
{16}2,4,3,4,{8}3,2>5[8:1],{24}6,7,8,1,,,{8}1,{16}2,7,
{8}3,4/6,8/5h[8:1],7,{16}6,5,{8}7,{24}2,3,4,5,,,{8}1,
7/4,1<6[8:1],{24}5,4,3,{8}2,2,{16}4,3,{8}5,
{24}2,3,4,8,7,6,1,2,3,7,6,5,{8}3,{16}3,2,{8}4,6/1,
{24}2,3,4,5/7,,,{8}2/1,4/3,4/7,{24}3,5,3,{8}5,2/4,
{24}1/3h[8:1],,,,,2,4,2,{3}3V52-6-1-7-2-6-3-5<3[12:47]*-6-2-7-1-7-2-6-3-5<3[12:47],{1},,{4},{16},,,{48},{8}6xz2[5.8871##0.1613],
{1},,,,{4},{16},,,6xh[24:1],
E
