&title=オーバーキャスト (feat. フリモメン)
&artist=⌘ハイノミ
&first=0
&des=F
&lv_5=14
&inote_5=(200){16}
,,,,Cf,,,,,,,,,,,,,,,,,,,,,,,,,,,,,,,,
{8}A6,E6,E4,A3,,,E7,B6,B3,E3h[8:3],,,,,,,
A6,E6,E4,A3,,,A7,B7,B2h[8:6],A2h[32:21],,,,,,,
A6,E6,E4,A3,,7xs3[4:2],2x-8-6-4[4:2],,,,,,,,8,1x,2bh[4:1],,,3h[4:1]/5,,,4v6[16:3]/6,,,5x-3[8:1],,,1h[4:1],,8,,7bh[4:1]/3,,,6h[4:1]/4,,,5v3[16:3]/3,,,4x-6[8:1],,,8h[4:1],,1,,2bh[4:1]/4,,,3h[4:1]/5,,,4v7[16:3]/6,,,5x>2[8:1],,,8h[4:1],,1,,7bh[4:1]/5,,,6h[4:1]/4,,,5v2[16:3]/3,,,4x<7[8:1],,,1h[4:1],,8,,5/2h[4:1],,4,5/3h[4:1],,5,46,7v6-4[16:5],,2x,,,8-2[8:1],,7,,4/7h[4:1],,5,4/6h[4:1],,4,53,2v4-6[16:5],,7x,,,1-7[8:1],,2,3-5>4-6[16:5],,,7xh[8:1],,7xV15[16:5],,5,4,,,2h[8:2],,4-8[8:1],,1,,2h[8:2],,4,5/3h[8:2],,,5,6/4V25-1[8:4],,,E7,,E8,,8x,7x,
{8}B2h[8:3]/B3h[8:4]/E3h[8:5]/A2h[8:6]/A3h[8:7]/D3h[8:8]/6x,,,8,8,,4q1[8:2],,4,,,,3-5[8:1],,5,,7h[8:9],,5,5,,3,4,5<3[8:3],,,,4x-8[8:1],,,,,B2h[8:3]/B3h[8:4]/E3h[8:5]/A2h[8:6]/A3h[8:7]/D3h[8:8]/6,,,8,8,,4<1[8:3],,4,,,3xh[8:3],,,5h[4:1],,4-2[8:1],,4,6-8[8:1],,6,1-5[8:1],,1,8,8h[4:1],,1,,4/3-7[8:1],,
{24}3b`A2f,E2f,E1f,
{16}A8f,,,,4x/6xh[4:1],,,,3,,24,,1,1,8-3[8:1],,,,3,,2-6[8:1],,,,6,,4<2[8:3],,,,8>4[4:1],,,,4V68[8:2],,,,8,,,,2-6-4[8:2],,,,12,,,,,,7,,3/7-3[16:2],,,,2,,,,1V38[4:1],,,,7,,6,,5V74[4:1],,,,3,,2,,8-3[8:1],,,,4,,,,6,,3,4,3,,25,,18,,7<4[8:1],,,,73,,2<7[8:1],,,,62,,5>2[8:1],,,,15,,8h[4:1],,,,1,,,,5/6-2[8:1],,,,
{24}6b`A7f,E8f,E1f,
{16}A1f,,,,5x/3xh[4:1],,,,6,,75,,8,8,1-6[8:1],,,,6,,7-3[8:1],,,,3,,5>7[8:3],,,,1<5[4:1],,,,5V31[8:2],,,,1V75[4:1],,,,5p2[8:3],,,,8x,,,,,,,,6h[4:1],,,,4h[4:1],,,,1<5[32:7],,,,3,,2,,8x>4[32:7],,,,6,,7,,1x<6[8:1],,,,5,,4>1[8:1],,,,46,,7,,8,,7/1x-5[8:1],,,,5,,7-4[8:1],,,,4V63-7[8:3],,3,,,,2,,2,,2,,2,,1,8,1,8,3,6,3,6,3b,,,,5>3[8:1],,,,2/5,,,,7<1[16:4],,,,78,,,,,,4x,,4xh[4:1],,,,
{8}5,6,7V58[4:1],,4,3,2-5-3[4:1],,6,7,8V26[8:2],,5,4,3h[4:1],,
{16}4,5,6,7,8/2b,,,,
{16}4<6[8:1],,,,7/4,,,,2>8[16:4],,,,21,,,,,,5x,,5x,,4,,3,,3,,4V63[4:1],,,,3,,2,,1V38[8:2],,,,5,,6,,7V51[8:2],,,,5,,4,,3,,2,,8,7,6,5,4/2b,,,,5-3[8:1],,,,2/5,,,,7<1[16:4],,,,78,,,,,,4x,,4xh[4:1],,,,
{8}5<8[8:1],,B7`B6,,4>1[8:1],,B2`B3,,5<4[32:10],,Cf,,,,
{16}2xh[8:2],,,,1,8,7,6,
{8}5/3V52[8:2],,6,7,8-5-7[8:2],,4,3,2V84[8:2],,5,6,7h[4:1],,3,
{16}6,5,6<1[8:1],,,,61,,,,3h[4:1],,4,5,6,7,8/Ch[8:5],,,,,,,,,,,,,,,,,,Cf,,,,,,,,,,,,,,,,,,,,,,,,,,,,,,,,
{8}A6,E6,E4,A3,,,E7,B6,B3,E3h[8:3],,,,,,,
A6,E6,E4,A3,,,A7,B7,B2h[16:11],A2h[16:8],,,A7h[16:5]/B7h[16:4],,,,
A6,E6,E4,A3,,2xz6[8:4],7x-1-3-5[8:4],,,,,,,,
1,8x,7bh[4:1]/3,4,5,6h[4:1]/4,,,5v3[16:3]/3,4,57,6x<1[8:1],,,2h[4:1],,4,,2bh[4:1]/6,5,4,3h[4:1]/5,,,4v6[16:3]/6,5,24,3x>8[8:1],,,7h[4:1],,5,,7bh[4:1],6,5,4h[4:1]/6,,,5q2[16:3]/7,6,35,4x<7[8:1],,,8h[4:1],,1,,2bh[4:1],3,4,5h[4:1]/3,,,4p7[16:3]/2,3,46,5x>2[8:1],,,1h[4:1],,8,,7b/3,4,5,46,5,4,6/3,4v3-1[16:5],5,6,,,7-3[8:1],,37,,2b/6,5,4,53,4,5,3/6,5v7-1[16:5],4,3,,,2x-6[8:1],,26,7-1<8-2[16:5],,,3xh[8:1],,3xV51[16:5],,1,8,7s3[16:5],6,,,2h[4:1],,8,,7/4,6,5,6/4h[8:2],,,46,5V74-8[8:4],4,3,E3,,E2,,1x,2x,
{8}B7h[8:3]/B6h[8:4]/E7h[8:5]/A7h[8:6]/A6h[8:7]/D7h[8:8]/3x,,,1,1,,5p8[8:2],,5,,,,6-4[8:1],,46,,2h[8:9],,1,1,,7,8,1>7[8:3],,,
{16},
{32},,8x-4[32:5],,
{16},
{8},,,,B7h[8:3]/B6h[8:4]/E7h[8:5]/A7h[8:6]/A6h[8:7]/D7h[8:8]/3,,,1,1,,5>8[8:3],,5,,,6xh[8:3],,,4h[4:1],,5-7[8:1],,5,3-1[8:1],,3,8-4[8:1],,8,1,1-5-2[8:2],,7b-3-6[8:2],,,,1x-7[8:1],,17,6-2[8:1],,26,3-5[8:1],,35,7,8h[4:1],,1,,5w1[8:1]/6,,
{32}E5f,B3f,Cf,B7f,E1f,,
{16},,,3x/7xh[4:1],,,,5,,26,,8,8,1v6[8:1],,,,16,,7-3[8:1],,,,73,,5V38[8:2],,,,8V62[8:2],,,,5,,,,1,,,,7-3-5[32:7],,6,8,7,,,,,,2,,6/2q6[16:2],,,,28,,,,8qq1[16:5],,,,28,,3,,4xqq5[16:5],,,,46,,7,,1x<6[8:1],,,,4x,,,,3,,6,5,6,,74,,81,,6<1[8:1],,,,62,,3<6[8:1],,2,1,3x,,8>3[8:1],,,,48,,4,,6,5,7,,,,8w4[8:1]/1,,,,
{32}E1f,B2f,Cf,B6f,E5f,,
{16},,,6x/2xh[4:1],,,,4,,73,,1,1,8v3[8:1],,,,83,,2-6[8:1],,,,26,,4-8[8:1],,,,3<6[8:1]/4,,,,7-3[16:3]/3,,,,4/7,,,,
{32}A2,E2,E1,A8,E8,E7,A6,E6,
{16}E5`A4f,,,,,,,,2/6h[4:1],,,,1,5,1,5,8xV25[32:7],,,,68,,7,,1xV74[32:7],,,,13,,2,,8x>3[8:1],,,,48,,5<8[8:1],,,,53,,2,,1,1,8x-4[8:1],,,,84,,2-5[8:1],,,,2/5V36-2[8:3],,6,,,,7,,7,,7,,7,,8,1,7,2,6,3,5,4,5b,,,,4<6[8:1]/6,,,,4/7<3[16:3],,,,2>8[16:4]/7,,1,,8x,,,,,,5x,,5xh[4:1],,,,
{8}4,
{16}3,4,
{8}2V41[4:1],,25,6,7v4-6[4:1],,73,2,1<7-3[8:2],,14,5,6h[4:1],,
{16}5,4,3,2,1/7b,,,,
{16}5>3[8:1]/3,,,,2q6[16:2]/5,,,,7<1[16:4]/2,,8,,1x,,,,,,4x,,4x,,53,,6,,6,,7/5V36[4:1],,,,65,,7,,8-6v1[8:2],,,,84,,3,,2>4-8[8:2],,,,24,,5,,6,,7,,1,2,3,4,5/7b,,,,4-6[8:1],,,,4/7V53[16:3],,,,7/2>8[16:4],,1,,8x,,,,,,5x,,4x/6x,,3,7,
{8}3>8[8:1],,38,,6<2[32:5],,26,,4>5[16:5],,
{32}4b`Cf,,,,,,
{16},,,,,
{16}7xh[8:2],,,,8,1,2,3,
{8}4/6V47[8:2],,63,2,1v4-2[8:2],,15,6,7>1-5[8:2],,74,3,2h[4:1],,6,
{16}3,4,3>8[8:1],,,,38,,,,6h[4:1],,5,4,3,2,1/Ch[8:5],,,,,,,,,,,,,,,,,,
{8}2h[8:3]/4b,,,3,3h[8:3],,,4,4h[8:3],,,5,5h[8:3],,,6>3[8:3],,7,7,,8,,E7,B6,B3,E3h[8:3],,,,,,,7h[8:3]/5b,,,6,6h[8:3],,,5,5h[8:2],,4,,4>2-5[8:3],,8,,,,6,,5,,A7,B7,B2,A2h[8:4],,,,,,5,3h[8:3]/5b,,,2,2h[8:3],,,1,1h[8:3],,,8,8h[8:3],,,7>2[8:3],,6,6,,5,,E7,B6,B3,E3h[8:3],,,,,,,4b/6h[8:3],,,7,7h[8:3],,,8,8h[8:2],,1,,1>3-8[8:3],,5,,,,7,,8,,A6,E6,E4,A3h[8:3],8xV62[16:5],,,,,,1bV37[16:5],,8,6x,6,,1x,1<6q2[8:3],,6x,,,3,,4,,5b-7v4[8:3],,4,4xV68[16:5],,3,2x,1,,4,4,6,6v1[16:3],,1,2,2bV47[16:5],,,6x,6,,5x,5>3q7[8:3],,3x,,,8,,2,,4b-2v5[8:3],,5,5xV31[16:5],,6,7x,8h[8:3],,,2,,4/6h[8:2],,5-1[8:1],,2bh[8:2],,8,7x,6/2h[8:2],,5x-1[8:1],,7h[8:2],,2,,5h[8:2],,3h[8:2],,8b-6v1[8:3],,1,1xV75[16:5],,2,3x,4h[8:3],,,6,,1h[8:2],,7h[8:2],,5b>1[16:5],,1,8x,7-3-5[16:5],,8x,,2V86[32:9],,6,,5<3[8:4],,,,3b,,4,,5x-3-6-2-7-1[32:39],,,,,
