&title=虚無さん
&artist=¿?shimon/25時、ナイトコードで。/鏡音レン
&first=1.09
&des=Ackerly with maduang
&des_5=Ackerly with maduang
&lv_5=14.1
&inote_5=(230){4},{8},,,,,,(115)5h[8:3],
{16}4,4,,2,{8}2,{16}8<5[16:1],1,{8}1,8,1,
{16}7-4-2[4:1],7,,,2-5-7[4:1],2,,,7-4-2[0.5217##0.5217],7,,,2,2,,,{8}1h[2:1],
{16}7,7,,6,{8}6,{16},8,{8}8,{4}1,
{8}5b,{16}1b,1b,,1b,{8}1b,{4}5w1[16:1],5,
{8}8h[16:3],{16}3,3h[16:3],,,{8}7,{16}1>4[16:1],7,{8}2h[8:1],{4}1b,
{16}8<5[16:1],1,{8}7h[8:1],{4}8b,{16}1>4[16:1],7,{8}2h[8:1],{4}1b,
{8}4/7,{16}5/6,5/6,,,{8}4/7,{16}8<5[16:1],3,{8}3,{4}8b,
5b/2b-4[16:1],2b/5b-1[16:1],5b/8b-6[16:1],8b/2b,
{2}4h[4:1]/5h[4:7],3h[4:1],
2h[4:1],1h[4:1],
{4}5/2qq7[2:1],5,5,5,
3/5pp8[8:5],3,3,3,
1h[4:1]/7-4[16:1],7,2h[4:1]/8-5[16:1],8,
8h[4:1]/2-5[16:1],2,7h[4:1]/1-4[16:1],1,
3h[8:1]/6-8-5-1[2:1],3h[8:1],3h[8:1],3,
8b/2b-4[16:1],2b/8b-6[16:1],{8}8b/2b,1b,,,3/8,
{16}2-5[16:1],1,,1,{8}2,{2}8h[4:1]/1h[8:3],
{8}6/1,{16}7-4[16:1],8,,8,{8}7,{2}1h[4:1]/8h[4:1],
{4}2b/7b-1-5[8:1],7b/2b-4-8[8:1],2b/5b-7-3[8:1],{8}2b/5b,{16}1b,1b,
,,{8}2h[8:1],{16}1,8/3,,,{4}3,8,
{8}2/5,{16}3-8[16:1],4,,4,{8}3,{2}6h[4:1],
{8}7/4,{16}6-1[16:1],5,,5,{8}6,{2}3h[4:1],
{4}1/Ch[4:3],2
,3,4,
{32}E7fh[4:1]/B7fh[32:9]/B6fh[16:5]/B2fh[32:11]/B3fh[8:3]/E3fh[32:13],,,,,,,,,,,,,,,,,,,,,,,,,,,,,,,,(230){4}8/2,
{8}2/8h[4:1],{32}2,3,4,5,,,,,,,,,{4}7/1,
{8}7/1h[4:1],{32}7,6,5,4,,,,,,,,,{4}7/1,8/2,
{24}2x,3x,{12}4x,{24},,1x,8x,{6}7x,{24}2x,3x,{12}4x,{24},,8x,7x,{6}6x,
{2}Cf,{4}3/7,3/7-1[8:1],
7,{8}2-5[8:1],2,,,{4}7,
{8}2-4[8:1],2,,,8,8-4[8:1],{4}4qq4b[4:1]*pp4b[4:1],
{8},,,,1,1-5[8:1],{4}5pp5b[4:1]*qq5b[4:1],
,,,,5/1-3[8:1],
{8}1/5,5,,,{4}4/8-6[8:1],
{8}4/8,4,,,{4}1-3-5[4:1],5b<4b[2:1],
{2}E8f/B7/B8,5h[2:1],
4h[2:1],{4}5,6,
8b-2[8:1]/7b-5[8:1],7b/8b,8b-5[8:1]/1b-4[8:1],8b/1b,
2b-4[8:1]/1b-7[8:1],1b/2b,8b/2b,1b/7b,
{24}8b/2b,3,,,,,1b/7b,6,,,,,8b/3b,4,{12}5,{24},,1b/6b,5,{6}4,
{24}8b/2b,3,{12}4,{24},,7b/1b,6,{6}5,{48}8b/2b,,,3,{4},{16},,{24},(115){16}2-4-7[8:3],
,,,,7,{8}7-5-2[8:3],,,{4}2-8-6[8:3],
{16},6,{8}6-4-2[8:3],{16},,,,2-8-5[8:3],,,,,5,{8}5-3-7[8:3],
,,{4}7-5-1[8:3],{16},1,{8}1>4[4:1],{16},,,,6h[16:5],
,,,,1,{8}1-3-5[8:3],,,{4}5<6-8>1[8:3],
{16},1,{8}1-3-6[8:3],{16},,,,6<1[8:3],,,,,1,{8}1-5[8:3],
,,{4}5>2[4:1],{16},6,{8}6h[8:3],{48},,,,,,,,,,,,,,,,,,1,
E2,B2,B3,,,7,E7,B6,B5,{96},,,,{32}8bx,8bx,8bx,8bx,8bx,8bx,8bx,8bx,8bx,8bx,8bx,8bx,,,,,,,,,{8}7-4[16:1],
{16}1,1,,2,{8}2,{4}7/2,{16}3,7,2,8,
{8}2-5[16:1],{16}8,8,,7,{8}7,{4}7/2,8b/1b-4b[8:1],
8b/1b-6b[8:1],2b/1b-4b[8:1],8b/1b-6b[8:1],{8}1b/2b,{16}2b,2b,
,,{8}1,{16}8/2,8/2,,,{4}1,8,
{8}8<5[8:1],{16}1,1,,2,{8}2,{4}8b/1b,{8}8,8,
1>4[8:1],{16}8,8,,7,{8}7,{4}6,{8}1>4[4:1],4,
{4}4<7[4:1],7>2[4:1],{2}2>4[8:1],
{1}E7h[4:1]/B7h[32:9]/B6h[16:5]/B2h[32:11]/E3h[8:3]/B3h[32:13],
1w5[1:3]
,
{4},,,,,,,,,,,5h[4:1]/1-4[16:1],
1,3h[4:1]/8-5[16:1],8,6h[4:1]/2-4[16:1],
2,3h[4:1]/7-5[16:1],7,(230),
2-4[8:1],2,7-5[8:1],7,
1-4[8:1],1,8-5[8:1],8,
{24},,,,,,1,8/2,7/3,6/4,{12}5bxh[6:11],{1},{4},,,1b>4b[8:1],
1b<6b[8:1],1b-4b[8:1],
1b,Ch[4:3],,,,2b/8b,
{8}8b,{32}8b/2b,3,4,5,,,,,,,,,{4}7b/1b,
{8}1b,{32}1b/7b,6,5,4,,,,,,,,,{8}7,2,
{4}2b-5b[8:1]/7b-4b[8:1],2/7b-1[8:1],7/2b-6[8:1],8b-4b[8:1]/2b-4b[8:1],
2b-6b[8:1]/8b-6b[8:1],8b/2b/Cf,,5h[8:1]/6h[8:1],
2-4[8:1],7/2-6[8:1],{8}2/8-4[8:1],8,,,{4}2-8[8:1],
{8}2/7-5[8:1],7,,,{4}4qq4b[4:1],
4pp4b[4:1]/8-4[8:1],8,,5pp5b[4:1],
5qq5b[4:1]/1-5[8:1],1,,Cf,
,1/8>3[8:1],{8}7/8,7,,,{4}8/1<6[8:1],
{8}2/1,2,,,{4}3<1[4:1],
{24}6h[4:5],,,,,,,2x,3x,4x,{12}5x,{24}7x,8x,1x,2x,3x,4x,{12}5x,{24}7x,8x,1x,2x,
{4}3xh[4:1],,,6b/5b,
8b/1b,4b/3b,8b/1b,6b/5b,
8b/1b,5b/3b,1b/7b,6b/4b,
8b/2b-6b[8:1],2b/7b-3b[8:1],7b/4b-1b[8:1],4b/5b-8b[8:1],
5b/2b-7b[8:1],2b/6b-3b[8:1],6b/1b>4b[8:1],1b/8b<5b[8:1],
8b/2b,{16}2xh[16:1],1xh[16:1],2xh[16:1],1xh[16:1],2xh[16:1],1xh[16:1],3xh[16:1],8xh[16:1],3xh[16:1],8xh[16:1],3xh[16:1],8xh[16:1],
,2xh,3xh,4xh,5xh,2xh,3xh,4xh,5xh,2xh,3xh,4xh,5xh,6xh,7xh,8xh,
1xh/5xh,2xh/6xh,3xh/7xh,4xh[16:13]/8xh[16:29],{4},,,{16},{48},{24}5xh,
6xh,{12}7xh,{24}1xh,2xh,3xh,4xh,5xh,6xh,7xh,1xh,2xh,3xh,{3}4xh[3:1],
{12},,,5xh[12:1]/7xh[12:1],,6xh[12:1]/4xh[12:1],,3xh[12:1]/5xh[12:1],,1xh[12:1]/7xh[12:1],,8xh[12:1]/2xh[12:1],
,3xh[12:1]/1xs5s1b[4:3],,,{3}Ch[2:1],{12},,,,,,,2xh[3:1],
,6xh[6:1],{48},,,,,,,,,,,,{16}2x/6x,3x/7x,{8}4x/8x,
{16},,,,8x/4x,7x/3x,{8}6x/2x,{16},,,,2xh[16:1],1xh[16:1],2xh[16:1],1xh[16:1],
{4}2xh[24:1],{12}1xh[12:1]/3xh[12:1],,2xh[12:1]/8xh[12:1],,7xh[12:1]/1xh[12:1],,3xh[12:1]/5xh[12:1],,6xh[12:1]/4xh[12:1],
,7xh[12:1]/5s1s5b[4:3],,,{3}Ch[2:1],{12},,,,,,,7xh[3:1],
,8xh[6:1],{48},,,,,,,,,,,,{16}6x/1x,5x/2x,{8}3x/4x,
{16},,,,1x/2x,3x/8x,{8}4x/7x,{24},,,,,,1h,2h,3h,4h,1h,8h,
7h,6h,1h,2h,3h,4h,{4}8bh,
E
