&title=MY Heart Rate (Hedonist Remix)
&artist=あよ
&first=0
&des=因为不会剪歌所以直接五条悟了
&lv_5=13+
&inote_5=(108)
{1},,
{4}6>3[4:3],,,,
2q7[4:3],,,,
6>3[2:1],,{48}B3,B4,B5,,,,,,,,,,{4},
2q7[8:4],,{48}A6,E6,E5,,,,,,,,,,{4},
{24}2h[8:1]/8,,,7,,7,2h[8:1],,,6,,,2-5[8:1]/5,,,5,,,8x,,,,,,
7h[8:1]/1,,,2,,2,7h[8:1],,,3,,,7-3[8:1]/4,,,4,,,1x,,,,,,
8h[8:1]/6,,,6,,6,8h[8:1],,,7,,,8h[8:1]/1,,,2-5[12:1],,,3,,1,1xh[48:1],,,
{16}7h[24:1],,A3/6h[24:1],,A2/5h[24:1],,A1h[8:3]/4h[24:8],,,,,,{24}3xh,2xh,1xh,8xh,7xh,6xh,
{16}1w5[8:1],,,,B1f,,,,3/7>3[8:1],,2/6,,{48}1h[8:1]/D8,A8,D1,,D2,A2,{16}D3,,
1x/5h[8:1],,4,,{24}5h[12:1]/8x>3[8:1],,6,5,,,{48}8x<5[8:1],D1,A1,D2,A2,D3,,,,,,,2x/8x,D8,A7,D7,A6,D6,,,,,,,
{24}1-5[8:1],,,2/8,,,1/7,,7V51-3b[4:1],,,4,4h[24:8],,,,,,,,,,,,
2>5qq3<6qq4<2[4:3]/5,,,6,,6h[24:16],,,,,,,,,,,,,,,,,,,
{16}5w1[8:1],,,,B5f,,,,6/2<6[8:1],,7/3,,{48}8h[8:1]/D2,A1,D1,,D8,A7,{16}D7,,
8x/4h[8:1],,5,,{24}4h[12:1]/1x<6[8:1],,3,4,,,{48}1x>4[8:1],D1,A8,D8,A7,D7,,,,,,,7x/1x,D2,A2,D3,A3,D4,,,,,,,
{24}5/7<4[8:1],,,8,,,7,A6,1/A5,,,1,7<4[8:1],,,8,,8,7,A6,A5,{24}1x,2x,3x,
4xh[8:3]/8bV27-3-6-4b[2:1],,,,,,,,,,,,4x-8b[8:1],,,,,,,,,,,,
{8}3x<6[8:3],,{48}A7,B7,,,,,,,,,,,,,,,,,,,,,,,A7,B7,,,,,6x,,,,,,
{8}6x>8[8:3],,{48}A7,B7,,,,,,,,,,,,,,,,,,,,,,,A7,B7,,,,,8x,,,,,,
{8}8xq6V42[8:4],,{48}A7/E7,B7,,,,,,,,,,,,,,,,,,,,,,,A7/E7,B7,,,,,1x,,,,,,
{8}1x-5V36[8:4],,{48}A7/E7,B7,,,,,,,,,,,,,,,,,,,,,,,A7/E7,B7,,,,,5x,,,,,,
{24}4-2[8:1]/6x,,,,,,A7/E8/B7/E7/D7,,,,,1-5[8:1],8x,,,2,,,A7/E8/B7/E7/D7,,,,,,
{24}4-1[8:1]/8x,,,,,,A7/E8/B7/E7/D7,,,,,2-5[8:1],8x,,,3,,,A7/E8/B7/E7/D7,,,,,4qq5[8:5],
4x/8x,,,,,,A7/E8/B7/E7/D7/A6/B6,,,,,,,,,,,,A7/E8/B7/E7/D7/A6/E6/B6,,,,,,
{8}4-8[8:1]/8x,3-1[8:1]/7,,,4x-8b[8:1],2x/5x-7b[8:1],,,
3<6[8:1],2,3/8,1,2>5[8:1]/5,1,2/8,1,
3<6[8:1]/7,2,3/8,1,2>5[8:1]/5,1<6[8:1],2/8,1,
3-7[8:1],2,3/5,4,8/3-8[8:1],1,3/5,4,
3-7[8:1]/1,2,3/5,4,8/3>6[16:3],1,3/6,5,
{24}4h[4:1],,,E2,,,3h[4:1],,,D8,,,5-2-6[16:3],,E1,B1,,,5,,,,,,
4h[4:1],,,E2,,,5h[4:1],,,A8,,,6-2-5[16:3],,A7,B7,,,6,,,,,,
8hb[24:1],,,1/2,,,3/7-4[12:1],,,5h[24:1]/6h[24:1],,5/6,,,,1hb[24:1],,,1-4[12:1],,,2h[24:1]/3h[24:1],,2/3,
5h[24:1],,,7h[24:1],,,1h[24:1],,,3h[24:1],,,5/7,,8,1,,3,4,,7,5,{48},,3x,4x,{4}2xq6b[12:1],A7hf[4:1],{48}E1/A8,D1,A1,D2,A2,D3,A3,,,,,,{24}
5b/6b,,5xh[24:1]/6xh[24:1],,,3<6[8:1],4,,2,1,,,A4/7,A5,,8,,,3h[8:1]/1-4[8:1],,,6x,,,5x-8[8:1],,7,7x,,,5/1V37[16:3],,,3xh[4:1],,,1w5[8:1],,,,,,B1f,,,,,,3x/4x,,3xh[24:1]/4xh[24:1],,,6,
5,,7,8,,,1h[24:1]/6h[24:1],,,2h[24:1]/5h[24:1],,,4-8[8:1],3-8[12:1],2,1,,,3b/4b,,,,,,6b/8b,,,4b/5b,,,1b/3b,,,2b/7b,,,
1v3[12:1]/5-8[12:1],,1h[24:1]/5h[24:1],,,,,,,,,,
4-2<1[12:1]/7v5[12:1],,4h[24:1]/7h[24:1],,,,,,,,,,
8V64[8:1]/6-3[8:1],,6h[24:1]/8h[24:1],,,,,,,,,,
1/2,,,3/4,,,5/6pp4qq5[2:1],,,7/8,,,1h[2:1],,,,,,,,,,,,
,,,1,,7,3p8[8:5]/7,,,,,,8h[24:1],,,8h[24:1],,,7h[24:1],,,6h[24:1],,,
5h[24:1],,,4h[24:1],,,{24}3xh,2xh,1xh,8xh,7xh,6xh,
{16}1bw5b[8:1],,,,B1f,,,,3/7>3b[8:1],,2/6,,{48}1h[8:1]/D8,A8,D1,,D2,A2,{16}D3,,
1x/5h[8:1],,4,,{24}5h[12:1]/8x>3b[8:1],,6,5,,,{48}8b<5b[8:1],D1,A1,D2,A2,D3,,,,,,,2x/8b,D8,A7,D7,A6,D6,,,,,,,
{24}3/1>4[8:1],,,8,,,1,A2,6/A3,,,6,1>4b[8:1],,,7,,7,1b,A2,A3,{48}8,7,6,5,{24},1,,,8,,{24}3/7,{32}2xb,1x,8x,7x,6x,5x,4x,3x,2x/6b,1x,8x,7x,6x,5x,4x,3x,2x/5b,1x,8x,7x,6x,5x,4x,3x,
{16}2x/5bw1b[8:1],,,,B5f,,,,6/2<6b[8:1],,7/3,,{48}8h[8:1]/D2,A1,D1,,D8,A7,{16}D7,,
8x/4h[8:1],,5,,{24}4h[12:1]/1x<6b[8:1],,3,4,,,{48}1xb>4b[8:1],D1,A8,D8,A7,D7,,,,,,,7x/1xb,D2,A2,D3,A3,D4,,,,,,,
{24}6/8<5[8:1],,,1,,,8,A7,3/A6,,,3,8<5b[8:1],,,2,,2,8b,A7,A6,{48}1,2,3,4h[48:19],{24},
8bV26-4b[4:1],,,,,,,,,,,,1-5[8:1],,,1h[24:1]/5-1[8:1]*-2b[8:1],,,,,,,,,{1},
E
