&title=目覚めRETURNER
&artist=フランシュシュ
&first=0.028
&des=YOZ
&lv_5=13+
&des_5=YOZ
&inote_5=
(144.98){4},{1},{4},{24}E7,
E6,E5,E4,,,{4}Ch[2:1],
{8},,6,{16}4,5,{8}4h[8:1],6<3[4:1],,5,
5,5,4h[8:1],{16}6,5,{8}6,3h[8:1],{16}5,4,{8}5,
3/6h,7/4h,2/5h,{16}3,3,,5,{8}5,{16}3,4,{8}3,
5/2h,4/7h,{4}8/1s5[2:1],,,,7h[2:1]/B7,
,5h[2:1],
,4h[2:1],,2h[2:1],
,8,8/B2,8,
8/E4,{8}7,7,2,2,{16}6,3,6,3,
{24}5<4[8:3],4,5,4,5,4,{4}5b,,6-1[8:1]*-2[8:1],
6/Cf,{8}3-1[8:1],4,3-7b[8:1],5,3V15[16:3],1,
3,7,7-5[8:1],8,7-3b[8:1],1,7-1-5[16:3],2,
7,2,{4}2-4-8[4:1],8-3-5[4:1],5-7-1[4:1],
1>5[4:1],5<2[4:1],2>7b[4:1],7>6b[4:1],
B6/B5/E6f,{8}7,7,{16}6,5,6,4,6,3,6,2,
{32}6,5,4,3,2,1,8,7,{16}6b/Cf,,,4,{8}4,6h[8:1],4,5h[8:1],
3,5,{16}6/4h[16:3],,,5,{8}5,4,6/7-3[8:1],8,
{4}7b,{16}4/B7,,,5,{8}5,3h[8:1],5,4h[8:1],
6,4,3/6,{16}5,4,{8}5,B2/E3,{16}6<1b[8:1],5,6,5,
{4}6b,{16}2/B4,,,8,{8}8,1h[8:1],7,2h[8:1],
8,1,{16}2/8h[16:3],,,5,{8}6,3/1<6[8:1],2-5b[8:1],1b,
{4}2b,{8}7,{16}3,4,{8}2,6/5,4/7,3/8,
{24}2,1,2,1,2,1,{16}2-7-3-5[8:3],,,B7,,,{8}E4,,B2,
B6,B4,{4}7xh[8:1],7xh[8:1]/B1/B2,7xh[8:1]/B4/E5,
{8}7xh[8:1],6,5/2,{16}3,4,{8}3,5/2,8-3[8:1],8,
5>2[8:1],5,{4}6xh[8:1],6xh[8:1]/B8/B1,6xh[8:1]/B5/B4,
{8}6xh[8:1],5,4,5,4,3h[8:1],{16}7,8,,6,
{8}5,3,{4}3xh[8:1],3xh[8:1]/6-1[8:1],6/3xh[8:1],
{8}3xh[8:1],{16}6,5,{8}7,2/1,3,2/1,8,{16}3,4,
{8}2,5,5-8[8:1],6,3/5-2[8:1],4,5/7,6,
5,{16}3,4,{8}3>8[8:1],2,3/7<4[8:1],6,7/2-6[8:1]*-5b[8:1],1,
{4}2b,{12}6xh,5x,7x,3xh,4x,2x,{48}7-4[8:1],,,8,,,{16}7,8,
{4}7bx,{12}3xh,4x,2x,6xh,5x,7x,{48}2-5b[8:1],,,1,,,{16}2,1,
{4}2bx,{8}4/6h[8:1],4,{16}5/3,5/3,,2,4,2,{8}4,
{4}B8/B7/E8,{16}6,6,{8}7/5,{16}3,3,{8}4/2,5,6,
{4}7/B1/B8/E1,4xpp1>3[0.9656##1.5175],{12},,,,{6}B1/B2,
{48},,,,,,,,,,,,,,,{16}E7,,B5,{48},,,,{12}E4,{48},,,,,,,,,,,,,,,,,,,{16}7bx-4v5-2<7b[1.0001##2.2072],
,,,,{8}B1/B2,{24},,,,{3}B8/B7,
{4},,,{16},,{8}4>5[0.6208##0.8277],
{1},{16},{64},3h[8:1]/5h[8:1],
,,,,,,,,,,,,,,,6h[8:1]/4h[8:1],,,,,,,,,,,,,,,,2h[8:1],,,,,,,,1,,,,,,,,2-5[8:1],,,,,,,,8-4[8:1],,,,,,,,2<7[8:1],
,,,,,,,8,,,,,,,,2,,,,,,,,6,,,,,,,,5,,,,,,,,4,,,,,,,,5,,,,,,,,4/6,,,,,,,,4/6-4[8:1],
,,,,,,,,,,,,,,,3/6-2[8:1],,,,,,,,,,,,,,,,2/6-8[8:1],,,,,,,,,,,,,,,,6/1>5[4:1],,,,,,,,,,,,,,,,5<1[4:1],
,,,,,,,,,,,,,,,1>5[4:1],,,,,,,,,,,,,,,,5<1[4:1],,,,,,,,,,,,,,,,1,,,,,,,,,,,,,,,,4>8[4:1],
,,,,,,,,,,,,,,,8<4[4:1],,,,,,,,,,,,,,,,4w8b[8:1],,,,,,,,,,,,,,,,Cf,,,,,,,,,,,,,,,,6h[4:1],
,,,,,,,,,,,,,,,4,,,,,,,,5,,,,,,,,3h[4:1],,,,,,,,,,,,,,,,B7/B6/E7,,,,,,,,,,,,,,,,4/2h[8:1],
,,,,,,,4,,,,,,,,5/2h[8:1],,,,,,,,5,,,,,,,,6/2>5[8:1],,,,,,,,7,,,,,,,,8/2,,,,,,,,,,,,,,,,6,
,,,,,,,6,,,,5,,,,6,,,,,,,,6,,,,7,,,,6,,,,,,,,6,,,,5,,,,6,,,,,,,,6,,,,,,,,6/1-4[8:5],
,,,,,,,,,,,,,,,7,,,,,,,,8,,,,8,,,,8,,,,,,,,6,,,,6,,,,6,,,,,,,,,,,,,,,,5-8[8:5],
,,,,,,,,,,,,,,,3,,,,,,,,2,,,,2,,,,2,,,,,,,,4,,,,4,,,,4,,,,,,,,,,,,,,,,3/4,
,,,,,,,4/3,,,,,,,,6/5,,,,,,,,6/5,,,,,,,,1,,,,8,,,,2,,,,7,,,,1>8[4:1],,,,8,,,,2,,,,7,
,,,1,{4},{16},{64},,,2/1,,,,,,,,3/4,,,,,,,,5/6,,,,,,,,7/8w4[8:1],,,,,,,,2/1,,,,,,,,8/Cf,
,,,,,,,,,,,,,,,B7/E7/B6/B2/B3/E3,,,,,,,,,,,,,,,,4/2,,,,,,,,3,,,,,,,,7/5,,,,,,,,6,,,,,,,,4/2-5[8:1],
,,,,,,,1,,,,,,,,2/8-3[8:1],,,,,,,,7,,,,,,,,6/8,,,,,,,,5,,,,,,,,6/4qq5[4:1],,,,,,,,5,,,,,,,,4/6,
,,,,,,,,,,,,,,,7-4[8:1],,,,,,,,8,,,,,,,,7/1-6[8:1],,,,,,,,2,,,,,,,,1/3,,,,,,,,4,,,,,,,,5pp4b[4:1],
,,,,,,,5,,,,,,,,,,,,,,,,E4,,,,,,,,E3,,,,,,,,E2,,,,,,,,B7/B6/B2/B3/E7/E3/Cfh[4:1],{4},{16},{64},,,6,
,,,5,,,,6,,,,,,,,7/4,,,,,,,,8/3,,,,,,,,2/1,,,,,,,,3/4,,,,,,,,5/2,,,,,,,,6/1,
,,,,,,,7,,,,8,,,,7,,,,,,,,6/1,,,,,,,,5/2,,,,,,,,4/3,,,,,,,,6-2[8:1]/5-1[8:1],,,,,,,,4/7,,,,,,,,5/6,
,,,,,,,,,,,,,,,2-5[8:1]/1-6[8:1],,,,,,,,2/1,{4},{16},{64},,,7/8,,,,,,,,6/1,,,,,,,,7/8-4[8:1],
,,,,,,,,,,,,,,,8/7-3[8:1],,B8,,C,,B4,,,,,,,,,,7/8w4b[8:1],,B7,,C,,B3,,,,,,,,,,8/Cf/B7/B6/B2/B3/B8/B1/B5/B4,,,,,,,,,,,,,,,,2-5[8:1],
,,,,,,,1,,,,1,,,,2,,,,,,,,6,,,,,,,,7-4[8:1],,,,,,,,8,,,,8,,,,7,,,,,,,,2,,,,,,,,1q5[8:1],
,,,,,,,8,,,,8,,,,1,,,,,,,,7,,,,,,,,6q2[8:1],,,,,,,,5,,,,5,,,,6,,,,,,,,3,,,,,,,,4,
,,,,,,,6,,,,4,,,,5,,,,,,,,3,,,,4,,,,2,,,,,,,,5/1,,,,,,,,8/6,,,,,,,,7/5,,,,,,,,6xh[8:1]/4xh[8:1],
,,,,,,,,,,,2xh[8:1]/1xh[8:1],,,,,,,,,,,,7x/8x,,,,,,,,6,,,,5,,,,6,,,,,,,,3,,,,4,,,,3,,,,4,
,,,3>8[8:1],,,,,,,,,,,,,,,,7/3,{192},,,,,6,,,,,,,,5,,,,,,,,{64}4,,,,,,,,6<1[8:1],,,,,,,,,,,,,,,,2/6,{192},,,,,3,,,,,,,,4,,,,,,,,{64}5,,,,,,,,4>1[8:1],
,,,,,,,,,,,,,,,8/4,{192},,,,,7,,,,,,,,6,,,,,,,,{64}5,,,,,,,,8<5[8:1],,,,,,,,,,,,,,,,4/8,{192},,,,,3,,,,,,,,2,,,,,,,,{64}1,,,,,,,,6,
,,,5,,,,7h[8:1],,,,,,,,3,,,,4,,,,2h[8:1],,,,,,,,5,,,,4,,,,6,,,,3,,,,7,,,,2,,,,8,,,,1,
,,,Cfh[4:3],{4},{16},,,{64},,,8z4b[8:1],,,,,,,,,,,,,,,,8,,,,,,,,,,,,,,,,3h[16:3],
,,,,,,,,,,,5,,,,5,,,,,,,,4-8[8:1],,,,,,,,6,,,,,,,,4/7-4[8:1],,,,,,,,6,,,,,,,,7/1,,,,,,,,2h[16:3],
,,,,,,,,,,,5,,,,5,,,,,,,,4-2-8-6[4:1],,,,,,,,,,,,,,,,E5,,,,,,,,B2/E3,,,,,,,,,,,,,,,,6h[16:3],
,,,,,,,,,,,4,,,,4,,,,,,,,5-1[8:1],,,,,,,,3,,,,,,,,5/2-5[8:1],,,,,,,,3,,,,,,,,2/8,,,,,,,,7h[16:3],
,,,,,,,,,,,5,,,,5,,,,,,,,3/6,,,,,,,,5-8[8:1],,,,4,,,,6,,,,,,,,5,,,,,,,,,,,,,,,,5/3h[16:3],
,,,,,,,,,,,6,,,,4,,,,5,,,,3,,,,6,,,,4>1[8:1],,,,,,,,5,,,,,,,,6,,,,,,,,7,,,,,,,,1,
,,,8,,,,,,,,3,,,,5,,,,4,,,,6,,,,3,,,,5<8[8:1],,,,,,,,5>2b[8:1],,,,,,,,5,,,,,,,,,,,,,,,,6h[16:3],
,,,,,,,,,,,3,,,,5,,,,1,,,,8,,,,4,,,,6h[8:1],,,,,,,,8h[8:1],,,,,,,,1h[8:1],,,,,,,,7,,,,5,
,,,6,,,,4,,,,5,,,,3,,,,4,,,,,,,,5/2-8z4-6[8:3],
E
