&title=DUAL BREAKER XX
&artist=Srav3R vs Getty
&first=1.9
&des=Soxps vs 草树
&lv_5=14+
&inote_5=(200){8}3,4,3,4qq7[8:9],,3h[8:11],,,,,,,,,,,6h[4:1],,5,6,5,6,5h[4:3],,7,7,7,7,7-5[32:3],,7,,
{8}3-1[32:3],,4,,,7,7,5-3[32:3],,5,7,,8-4[8:1],8,1,,{16}2,5,2,,36,,7,,27,,2,,1-5[8:1]/8-4[8:1],,18,,1bV37[8:3]/8bV62[8:3],,,,,,,,,,,,36,,,,
{8}1b>4[8:1],8,7,6-1[8:1],5-2[8:1],6,5,,8<5[8:1],1,2,3-8[8:1],4-7[8:1],3,4,,2-5[8:1],1,8,7-3[8:1],4-1[8:1],7,4,,6-1[8:1],5,4,3,2-7[8:1]*-5[8:1],,2b,,{16}6b,,6,5,7,,7,,3b,,3,4,2,,2,,7b/4,,6,5,8,,8,,2b/5,,3,4,1,,1,,2b,5,2,5b,3,6,3b,6,1b,8,2,7b,1-5[8:1],8,2b,7,1bv3[16:5]*v7[16:5],,,,,,,,,,,,4/6,,,,
{16}3h[8:1]/4,,,,3h[8:1]/5,,,,6,4,6,4,7,,,,6h[8:1]/5,,,,6h[8:1]/4,,,,3,5,3,5,2,,,,3h[8:1]/4,,,,5h[8:1]/4,,,,3,4,3,4,2,,,,4b-8[8:1]/6b,,5,,2b/4b,,,,3h[8:1],,7h[8:1],,1h[8:1],,5,,
{16}2b/4b,,24,,24,,6,5,7-1[32:3],,,,7,,,,24,,24,,24,,6,5,7-2[8:1],,8,,7,,,,3,,4,,5h[8:1],,4,,5,,6h[8:1],,3,5,3,5,2,,6,,7h[8:1],,6,,7,,8h[8:1],,1b,,,,
{24}2,3,4,8,7,6,2,3,4,8,7,6,{16}1bV37[4:1]/5b,,,,7,,6,,5-1[8:1],,5,,4-2[32:3],,4,,8,,8,,7/1h[4:1],6,5,4,3-7[8:1],,,,32,,1>4[8:1],,,,1b<6[8:1],,,,1b-5[8:1],,,,1b,,,,3b>8[8:1]/7b,,,,{24}3b/7b,6,5,4,,,,,,
{16}24,,1,,57,,8,,25,,3,,47,,6,,15,,2,,48,,7,,15,,3,,48,,6,,15,,15,,26,,26,,{32}3,4,5,6,7,8,1,2,3,4,5,6,7,8,1,2,3b-7[8:1],,,,,,,,3bw7[8:1],,,,,,,,3b,,,,,,,,1b/5b,,,,,,,,
{8}2h[8:1],3h[8:1],4h[8:1],5h[8:1],1h[16:1],1h[16:1],2h[16:1]/8h[16:1],2h[16:1]/8h[16:1],3h[16:1]/7h[16:1],3h[16:1]/7h[16:1],4s8[4:1]/6z2[4:1],46,,,,,
{16}2,4,2,4,2h[8:1],,,,{24}2h[8:1]/8,7,6,5,,,8/6h[8:1],1,2,3,,,2h[8:1]/8,7,6,5,,,8/6h[8:1],1,2,3,,,2h[8:1]/8z4[8:1]*s4[8:1],7,6,5,,,{8},,2bv5[8:1]/6bv1[8:1],,26,,3-8[8:1]/7h[4:1],,3,6-3[8:1],2,6,1-5[8:1],8,1,,{16}7,4,8,3,1b/2,,1b/2,,,,7b/5,,,5b/4,,,4b/2,,,1/8b,,,3/6b,,2V48[8:2]/7bV51[8:2],,1b/8,,2/7b,,,,,,,,6h[8:1]/3h[8:1],,,2h[8:1]/5h[8:1],,,1h[16:1]/4h[16:1],,3b/8b,,,,1h[8:1]/4h[8:1],,,2h[8:1]/5h[8:1],,,6h[8:1]/3h[8:1],,,7h[8:1]/4h[8:1],,,8b/5b,,,,8,7,6,5,{12}34,3,3,1,1,1,7,7,7,5>6[4:2]*<4[4:2],5,5,,,,,,,,,,
{16}37,,3,,2b/6b,,3,4,2,,2,,3/7,,6,5,7,,7,,48,,2,1,3-8[8:1],,4,,3,,5-1[8:1],,4,,5,,3,,3,4,2-5[8:1],,1,,8-4[8:1]/2,,7,,3/8,,2,,1q5[8:1],,7-4[8:1],,1-6[8:1],,7,,1b,,,,4,3,2,1,8b-4[8:1]*-3[8:1],,,,8b,,,,6-1[8:1],,5-2[8:1],,6,,5b-8[8:1],,,,5b/7,,,,6,,25,,3,,47,,8,,1b/5b,,1b<6[8:1]/5b>2[8:1],,,,1bV36[4:1]/5bV72[4:1],,,,1b/5b,,,,,,48,,48,,37,,37,,2-7[8:1]/6-3[8:1],,26,,2b>6[4:7]/6b<6[4:14],,,,
{8},,,,,,,,,,,,,,,,,,,,,,,,1h[8:1],,8h[8:1],,7-3[8:1],,7/3,,4h[4:3],,5,,5,,5,,6h[4:3],,5,,5,,5,,64,6,68,6,64,6,{16}3,5,2,4,1bV38[4:1],,,,8b-4[8:1],,,,7b,,,,5,6,7,8,1-4[8:1]/2-5[8:1],,,,12,,,,7<4[8:1],,8v5[8:1],,7,,8>3[8:1],,,,68,,,,7,,4,,8,,3,,2v5[8:1]/1-4[8:1],,,,12,,,,6,,7h[4:1]/8,,1,,2,,3,,4-1[8:1],,,,47,,8-5[8:1],,,,48,,4,3,2,1,7-4[8:1]/8,,,3,7,,3,,2-5[8:1],,,1,2,,8,,7-3[8:1],,48,,7b/3,,,,2,,1,,5,,6,,4/7b,,3,4,2b/5,,6,5,7b/4,,3,4,2b-6[8:1]/5-8[8:1],,,,2bp1[8:5]/5,,,,,,,,8-5[8:1],,,,,,,,
{8}3b/7b,,2h[8:1],5h[8:1],1h[8:1],4h[8:1],3h[8:1],8v3[8:1],,28,1,1,2-5[8:1]/4-7[8:1],2/4,2b/4b,,{16}8,,,57,,,34,,,24,,,18,,,24,,,56,,,57,,,{12}1-5[10:1]/8-4[10:1],18,18,1b/8b,,,
{16}3,4,3,4,2,,2,,6,5,6,5,7,,7,,2,1,2,1,5,6,5,6,8,7,8,7,3,4,3,4,1b-5[16:10],,,,,,,,1,,,,1<6[8:1],,,,1b-3[32:3]*-4[8:1],,,,1b<6[8:1],,,,1b-3[32:3]*-4[8:1],,,,1b-5[8:1],,,,1bv3[8:1]*v7[8:1],,,,1bw5[8:1],,,,1b,,,,3b/7b,,,,
{16}2b/5,,7,8,6,,6,5,7-5[8:1],,5-1[8:1],,7b,,4,,3h[8:1],,7,8,6,,6,5,7-4[8:1],,4-8[8:1],,7b,,3,,2h[8:1],,6,5,7,,7,8,6-1[8:1],,1V74[4:1],,6b/3-8[8:1],,4,,3b,,,,26,,3,,1-4[8:1]/5-1[8:1],,3,,1b/5b,,,,7b,,3,4,2,,2,1,3-8[8:1],,8-4[8:1],,3b,,7,,6h[8:1],,2,1,3,,47,,6,5,7,4,6,,2,,1b>4[8:1],,,,15,,6,,7-5[8:1],,5-1[8:1],,7,,2,,,,3-5[8:1],,7v4[8:1],,3,,7,,,,2b/6b,,,,
{16}7b/4,,2,1,3,,3,4,2-4[8:1],,4-8[8:1],,2b,,5,,6h[8:1],,2,1,3,,3,4,2-5[8:1],,5-1[8:1],,2b,,6,,7h[8:1],,3,4,2,,2,1,3-8[8:1],,8V25[4:1],,6-1[8:1]/3b,,5,,6b,,,,37,,6,,4v7[8:1]/8<5[8:1],,6,,4b/8b,,,,1>4[8:1],,,,1/5>2[8:1],,6,,7-3[8:1],,,,7-5[8:1]/8-2[8:1],,,,8-4[8:1]/7,,,,3-1[8:1]/8-6[8:1],,,,38,,,,5,,6,,3h[4:1]/7h[4:1],,,,,,,,{24}1/7h[8:1],2,3,4,,,1/3h[8:1],8,7,6,,,{8}2h[16:1]/5h[16:1],2h[16:1]/5h[16:1],3h[16:1]/6h[16:1],3h[16:1]/6h[16:1],4>1[8:1]/7<4[8:1],4h[16:1]/7h[16:1],4bV62[4:15]/7bV15[4:15],,
{1}7b,,,,
{8}3,,2h[8:3]/4,,,3,24,3,,3,2h[8:2]/4,,3,24,1h[4:1],,{16}8,7,6,5,1,2,3,4,8,7,6,5,4,3,2,1,4b/8b,,4b-1[8:1]/8b-5[8:1],,,,4b<7[8:1]/8b>3[8:1],,,,4b/8b,,,,4b/8b,,2b/6,,7,8,6h[8:1],,1-5[8:1],2,3/5V38[4:1],,1,,6b,,6,,7h[8:1],,2,1,3h[8:1],,8-4[8:1],7,6/4V61[4:1],,8,,3b,,3,,2-6[8:1],,,,2b,,,,8-5[8:1]*v3[8:1],,,,8b,,,,47,,25,,38,,16,,{32}2,3,4,5,6,7,8,1,{16}2b/6b,,,,
{16}7-3[8:1]/4,,8,,5-2[8:1]/7-4[8:1],,,,5V71[4:1]/7,,,,1-5[8:1]/5,,2,,3-8[8:1]*v6[8:1],,,,3,,,,{16}45,,45,,45,,2b/7b,,27,,,6,57,,3,4,52,,6,5,47,,{32}1,2,3,4,
{8}5bV38[8:2]/7bV51[8:2],,,,,,2b/6b,,
{16}7h[16:3],,,5,6h[8:1],,5,,7,5,,7,5,,3,4,2h[16:3],,,4,3h[8:1],,4,,2,4,,2,4,,6,5,7h[16:3],,,5,6h[8:1],,5,,7,5,,7,5,,3,4,2b-4[8:1],,,,1-5[8:1]/2,,,,8-6[8:1]/1,,,,86,,,,2b/5,,3,4,1,,2b/5,,3,4,1,,6,5,6,5,7b/4,,6,5,8,,7b/4,,6,5,8,,3,4,3,4,2b,1,3,8,3,4,2b,5,8,7,1,6,5b-1[8:1],6,4,7,5b>2[8:1]*<8[8:1],,,,5bw1[8:1],,,,5b,,,,7b-2[8:1]/3b-6[8:1],,,,37,,E
