&title=Aura
&artist=lapix
&first=3.08
&des=HiTECH CaSTER 即使我竭尽全力 也只会在你的光芒面前黯然失色
&lv_5=14
&inote_5=(156)
{1}3bx/7bhx[2:3],
{16},,,,,,,,6bx,,,3bx/4bx,,,7bx/1bhx[2:3],,
{1},
{16},,,,,,,,2bx/3bx,,,5bx/7bx,,,1bx/2bx,,
{4}6<5[1:1],B4,B6,B8,
{16}B2,,,,B4,,,,7bx/8bx,,,3bx/5bx,,,6bxh[8:4]/1bx,,
{16},,,,,,,,7bx/5bx,,,2bx/4bx,,,1bx/8bx,,
{8}6V48[16:5]/3V51[16:5],,,,,,5,6,
{8}7pp6[8:3],,,3,3pp2[8:3],,,7,
{16}7h[16:3],,,6h[16:3],,,5,,2bh[16:3],,,3bh[16:3],,,4b,,
{16}8pp7[8:3],,,,,,4,,4pp3[8:3],,,,,,8,,
{16}8h[16:3],,,7h[16:3],,,6,,3bh[16:3],,,2bh[16:3],,,1bh[8:11],,
{4}A7/B7,A6/B6,A5/B5,A4/B4,
{16}A3/B3,,,,A2/B2,,,,7b/8b,,,4b/3b,,,7bv4[16:3]/1bv4[16:3],,
{16},,,,,,,,2b/1b,,,5b/6b,,,8b/7b,,
{4}5b-1[16:3]/4b,,4-2[8:1]*-6[8:1],4x,
{16}6x/5x,,,,3/4,,1,,6/5,7,,7,3,,2/4,,
{16}5/6,,8,,3/4,,1,,5/6,7,,7,3,,2/4,,
{16}6/5V31[16:3],,8,,6/5,,,,5-8[8:1]*-2[8:1],,,,5,,,,
{16}4-8[8:1],,8V25[16:3],,4/6,,,,6,,8,,3/4,,1,,
{16}6-1[8:1]/5,,1-5[8:1],1,,4,4,,3,,2,,5/6,,7,,
{16}2V48[4:1],,4,4,,7,7,,6,,8,,4/5,,2/1,,
{16}5-1[8:1]/4,,7/8,,4-8[8:1]/5,,3,,6,6,,7,7,,3/4,,
{8}8>3[8:1]/7,3<6[8:1]/4,8,7,,8,5/6,1,
{16}4x/3x,,,,6/5,,8,,3/4,2,,2,6,,7/5,,
{16}4/3,,1,,6/5,,8,,3/4,2,,2,6,,7/5,,
{16}3/4V61[16:3],,1,,4,,3,,4-1[8:1]*-7[8:1],,,,4,,,,
{16}5-1[8:1],,1V74[16:3],,5/3,,,,3,,1,,5/6,,8,,
{16}4h[16:3]/3,,,2,8,,8,6,,6,4,,4x,2,,2,
{16}4h[16:3]/3,,,1,7,,7,5-7[8:1]*-3[8:1],,,,,,,,,
{4}7bV52[4:1]/2-4[8:1],2<4[8:3]/7,4x,1,
{16}2,3,5,6,3,4,6,7,2,3,5,6,3,4,6,7,
{8}8b-5-1[8:3]/2b,,2-4[8:1],,2x<5[4:1],,5V71[4:1],,
{4},4-8[8:1]*-7[8:1],4x,1<6[8:1]*>4[8:1],
{8}1b-4-8[8:3],,7-5[8:1],,7x>4[4:1],,4V28[4:1],,
{16},,,,5-8[8:1]*-2[8:1],,,,5x,,,,4/5,,3,3,
{8}5,5h[8:1],6,6h[8:1],7,7h[8:1],8,8h[8:1],
{8}1,1h[8:1],2,2h[8:1],3,3h[8:1],4,4h[8:1],
{16}5,5,6,6,7,7,8,8,1,1,3,3,5,5,7,7,
{4}1xq4[16:5]*p6[16:5],,,3b/7bV51[4:1],
{8}3h[16:1],3h[16:1],4h[16:1],4h[16:1],3/7V16-2[8:3],,3h[16:1],3h[16:1],
{8}4h[16:1],4h[16:1],3h[16:1],3h[16:1],4-2[8:1]/5-1[8:1],,,,
{16}8/3h[16:1],,3h[16:1],,7x/4h[16:1],,4h[16:1],7x,3h[16:1],,5x/3h[16:1],,4h[16:1],6x,4h[16:1],,
{16}6x/3h[16:1],,3h[16:1],6x,,,1v3[8:1]/5v7[8:1],1/5,1/5,,,,,,,,
{16}2/5h[16:1],,5h[16:1],,1bx/6h[16:1],,6h[16:1],2bx,5h[16:1],,3bx/5h[16:1],,6h[16:1],8bx,6h[16:1],8bx,
{16}5h[16:1],,4bx/5h[16:1],,6h[16:1],3bx,6h[16:1],,1-4[8:1]/8-5[8:1],,,,,,,,
{1}2qq5[2:1]/7pp4[2:1],
{16}2,6,8,3,1,7,4,5,1-5[8:1]*s5[8:1],,7/3,,1b,,,,
{16}2-5[8:1]/8,,3,4,2,,6,,7/8-4[8:1],,5/4,,8-3[8:1]/3,,1,,
{16}8/7,,5,4,7,1,4,2,6-1[8:1],5,,5,6,,4,,
{16}3-8[8:1]/5,,2,4,3,,7,,6/5-1[8:1],,8/1,,5-2[8:1]/2,,4,,
{16}5/6,,7,8,5,3,4,1,7-4[8:1],6,,6,7,,1,,
{16}2>5-1[4:1]/8,,3,4,2,,7,,6,,8-3[8:1]/1,,3V52[16:3]/4,,8-5[8:1]/7,,
{16},,8,,1,,3,,5-2[8:1],,7V13V57[2:1],,5,,7,,
{16},,,,2-4[8:1],,2,,,,7,,8/4<7[8:1],,3,,
{16}4x>2[8:1],,,8,4x,,5,,4x,2,6,5,1x,3,5,4,
{16}2x/1x-5[8:1],,,8,1,,6,,7/8-4[8:1],,,1,8,,3,,
{16}1/2>5[8:1],,3,4,2,,6,6,8-4[8:1],7,,7,8,,,,
{16}3/2-5[8:1],,,1,2,,7,,6/7-4[8:1],,,8,7,,1,,
{16}3/4,,1,6,5,8,2,5,4-8[8:1],,7-4[8:1],,4,,7,,
{16}2-4[8:1],,8,8,2-6[8:1],,5,5,2-4[8:1],,7,7,2,,5,5,
{16}1,7,3,4,2,8,5,6,8,4,2,6,5,8,3,5,
{16}1-3[8:1],,7,7,1-5[8:1],,5,5,1-3[8:1],,6,6,1,,4,4,
{24}1x,2,3,4,5,6,2x,3,4,5,6,7,1xw5[8:1],,,,,,1b,,,,,,
{16}2,7,1,8,3-8[8:1]/5,,7/8V62[16:3],,3/5-8[8:1],,,,5,,,,
{16}8,4,6,2,7,3,5,1,8-4[8:1],,3-8[8:1],,8,,3,,
{16}7,2,8,1,6-1[8:1]/5,,2/1V37[16:3],,6/4-1[8:1],,,,4,,,,
{16}1,5,3,7,2,6,4,8,1-5[8:1],,6<1[8:1],,1,,6,,
{16}2-5[8:1],,4,6,2,,8,,6-1[8:1],,8,4,6,,2,,
{16}3/7,,5>2[8:1]/1,,7/3,,5b/1b<6[8:1],,,,4b-8[8:1]/1b,,,,4b/1b,,
{16},,7b/1b,,5b-8[8:1]/4b,,8-3-7[4:1]/1,,5b/3b,,1,,4b,,8b,,
{1}6q8[2:1]/2q4[2:1],
{8}3/7-5[8:1]*-1[8:1],,,,B1/B2,4>2[8:1],,,
{8}5-7[8:1]*-3[8:1],5,,,B8/E1,3>1[8:1],,,
{16}6x<8[8:1]*-4[8:1],,,6x,,,,,B1/B2,,4>2[8:1],,,,,,
{16}5-7[8:1]*-3[8:1],,5,,,,,,1/8,,,,1/8,,2,2,
{16}5,,3h,,5,1h,,1h,5,,3h,,5,,7h,,
{16}5<8[8:1],,,,,,4,3,2-5[8:1],,,,,,7,8,
{16}1/2,,3/4,,5/6,,7/8,,1,1,2,2,3,3,4,4,
{1}5x-8V61V75[2:1]*-2V41V35[2:1],
{16}5bx,4,4,4,7,5,6,5,7,4,4,4,8,5,6,5,
{16}7,4,4,4,8,5,7,5,6,4,4,4,8,5,6,5,
{16}7,7,8,8,1,1,2,2,4,4,6,6,8,8,2,2,
{16}4-1[8:1]*-7[8:1],,1/7,,4,,,,2V47[16:3]/6V83[16:3],,1b/5b,,2/6,,,,
{16}4x/8x,
E
