&title=Hiyaiya!
&artist=MYUKKE
&first=0.052
&des=完全嘉豪
&lv_5=14
&des_5=完全嘉豪
&inote_5=
(128){4},{16},,,,5pp6[16:3],5,{8}4,{4}E3/B2f,
1h[4:1],{8}7,2/4,{4}3h[4:1],{8}8,5,
{16}4h[16:1]/6h[16:1],,,2h[16:1]/4h[16:1],,,{8}3h[8:1],8>4[8:1],7/1,{4}5,
{8}1-7-1[16:3],3/6,,,6-2-6[4:1],3/5,,,3,
4/8,7,6/2,{16}3qq2[16:3],3,{8}4,{4}B7/B6/E7f,
8h[4:1],{8}2,6,{4}5/7h[4:1],{8}1,3,
{16}2h[16:1]/4h[16:1],,,3h[16:1]/5h[16:1],,,{8}2,1<5[8:1],2/8,{4}4,
{8}4-6-4[16:3],3/7,,,7-3-7[4:1],4/6,,,{4}1b-5b[16:1],
8b-4b[16:1],{8}7b-3b[16:1],5b,{4}E7f/A6/B6/E6,
2h[8:5],B6/B5,,B7/E7,
6h[8:5],B4/E4,,B2/E3,
2h[8:5],B7/B6,,B8/E8,
7h[8:5],B5/E5,,B3/E4,
{16}5,,,,{4}6h[8:1]/B1/E2h[16:0]`B2,5,{8}6/B1/E2h[16:0]`B2,{16}5x,5x,
{4}4,2h[8:1]/B7/E7h[16:0]`B6,3,{8}2/B7/E7h[16:0]`B6,{16}4x,4x,
{8}5x,4/6,3,4/2,{16}1h[16:1],5,2h[16:1],4,3h[16:1],8,4h[16:1],7,
{4}5w1[8:1],5b,{32}6,5,4,3,2,1,8,7,{4}6/2b>5[8:1],
{8}2<7[8:1],{16}7,7,{8}2,{24}6,5,4,{8}8qq6[8:1],6qq4[8:1],8,7,
1h[8:1],{16}4,6,{8}1h[8:1],{16}5,3,8,8,4>1[8:1],6,{8}1,{24}8,7,6,
{16}5h[8:1],,,4h[8:1]/2h[8:1],,,{8}5/7,8/1,{16}3,3,7,4,6,3,
{8}5<8[8:1],{16}3,3,{8}5,{16}4-1[8:1],4,8-5-8b[4:1],8,,,,,,,{8}2<7[8:1],
{16}6,6,{8}2,{24}6,5,4,{8}8-5[8:1],5v3[8:1],8,7,
1-4[8:1],2,1/8,7,6/5-8[8:1],3,5/3,2,
1h[8:1],{16}3,3,5,5,7,7,{8}8/1,2/4,5/7,{16}8/1,8/1h[16:7],
,,{8}E4/B3/B4,B7/E7/B6,{16}8x,3x,,3x,{8}7x,{48}7bx/A4f,D4,A3,D3,A2,D2,,,,,,,{16}8<5[8:1],
,,2,{8}8,1,5/4-2[16:1],2/1V35[8:1],6,7,
8x<5[8:1],6,2/8>3[8:1],4,8/6,4,1/8,5/4,
2/7-3-7[16:3],6/4,,,1q5p1[16:3],5/6,,,8<5<8[16:3],
4/6,,,2-4-2[8:1],4/5,{16},,,,1>4[8:1],
,,7,{8}1,8,{16}6,5,7,1,5,4,8,3,
{8}1x>4[8:1],4,7/1<6[8:1],5,1/3,5,8/1,4/5,
7/2-6-2[16:3],3/5,,,8p4q8[16:3],4/3,{16},,2,2,
,,{8}7/4,6h[8:1],{24}4q8p4[4:1]*p8q4[4:1],3,5,{2}4,
{1}6<3>6b[8:13],
E5h[1:1],
{2}B6/E7,B7/E7,
2h[2:1],{4}6h[2:1],C,
{1}1pp4qq1[1:1],
{2}8<5<8[8:3],{4}2h[4:1],7h[4:1],
5qq2pp5[8:7],E7,E8,E1,
1<5[16:3],3h[2:1],{2}4-8b[8:1],
{4}2h[8:5],B6/B5,,B7/E7,
6h[8:5],B4/E4,,B2/E3,
2h[8:5],B7/B6,,B8/E8,
7h[8:5],B5/E5,,B3/E4,
{16}5,,,,{4}6h[8:1]/B1/E2h[16:0]`B2,5,{8}6/B1/E2h[16:0]`B2,{16}5x,5x,
{4}4,3h[8:1]/B7/E7h[16:0]`B6,4,{8}3/B7/E7h[16:0]`B6,{16}4x,4x,
{8}5,4/6,3,4/2,{16}1h[16:1],5,2h[16:1],4,3h[16:1],8,4h[16:1],7,
{4}5h[4:3],B4/E4,E7/B6,Cfb,
{8}6/1>4[8:1],{16}2,5,{8}1bx,{32}5bx,6,7,8,{16}3>8[8:1],2,{8}6,3bx,{32}7bx,6,5,4,
{16}8,8,{8}4h[8:1],2,{16}4/6,3/7,,8/1,{8}7/2h[8:1],6h[8:1],3,
8<5<8[4:1],{16}4,4,8,2,{8}2,1q5p1[4:1],{16}6,6,1,,,8xh[8:1],
,,{8}2x/6xh[8:1],1,{16}3/7,7/3,,2,5,3,{4}8/Cf,
{8}2/5<8[8:1],{16}6,1,{8}5b,{32}1b,2,3,4,{16}7<4[8:1],6,{8}2,7b,{32}3b,2,1,8,
{16}4,4,{8}8h[8:1],6,{16}1h[16:1],4,3,6,3,5,4,7,{8}1,
5<8<5[4:1],{16}1,1,5,3,,1,,,{8}3/4,5/7,1bs5s1>4[2:1]/8bz4z8<5[2:1],
,,,,,,{4}Cf/B6/B2/A6/A2,
{16}1,5,3,4,2,7,3,6,{32}1b,2,3,4,{16}6,5,{32}8b,7,6,5,{16}1,4,
3,6,4,7,2,6,4,7,{32}1b,2,3,4,{16}6,5,{32}8b,7,6,5,{16}2,4,
{8}3-7-3b[4:1],6/4,{4}3/7,{8}5q1p5b[4:1],8/2,{4}5/3,
{16}2,2,4,3,6,2,5,3,{32}8b-4b[16:1],7,6,5,4,3,2,1,{4}Cf,
{8}7b/3b,6b/5b,{16}8b,2,6,3,{32}8b,7,6,5,{16}3,4,{32}1b,2,3,4,{16}8,5,
7,3,5,2,7,3,5,2,{32}8b,7,6,5,{16}3,4,{32}1b,2,3,4,{16}8,5,
{2}3bh[8:3]/7-4-7[4:1],{8}2>5>2[4:1],,,6b,
,8,{16}7/2,,,5,,3,6,4,{4}7b,
{2}8h[4:1],2h[4:1],
6h[4:1],3h[4:1],
{8}8-2[8:1],3/7,,,3-7[16:3],4/6,,,{4}6h[4:1],
4,{16}3qq2[16:3],3,{8}4,{4}B7/B6/E7f,
8h[4:1],{8}2,{16}6,5,{4}7h[4:1],{8}1,{16}3,4,
2,2,,4/6,{8}6/4,2,1<5[8:1],2/8,{4}4,
{8}4-6-4[16:3],3/7,{4}4,{8}7-3-7[4:1],4/6,{4}7,
1b-5b[16:1],8b-4b[16:1],{8}7b-3b[16:1],5b,{4}A6/E6/B6f/E7h[1:1],
{1}E3h[4:3],
E
