&title=Abyssgazer
&artist=xi VS Sakuzyo
&first=0
&lv_5=14
&des_5=HILZ
&inote_5=
(191){4},{32},,,,,,,,,,,B7/B6/B2/B3/Ch[32:17],{2},,,,,,,,,{8}E8,
E1,E2,E3,E4,E8,E1,
E2,E3,E4,E8,E7,E6,E5,E4,
E8,E7,E6,E5,E4,E3,E2,E1,
E8,E7,E6,{32}5x/4h[8:5],2x,{16}1x,{24}8x,7x,6x,5x,,3x,2x,{48}1x,8x,{96},{32}7x,6x,5x,3x,2x,
1x,8x,{16}7x,{8},{4}B6/B7,{16}3,4,{8}3,B7/B6,{16}3,4,
{8}3,6h[8:3],4,2,8,3h[8:3],5,7,
1,7b/4b,{16}2,1,{8}2,{24}B6,B5,,{16}2,1,{8}2,B4/B3,
,3/6h[8:3],8,2,4,3h[8:3],5,7,
1,{24}B7,B6,,{16}3,4,{8}3,{24}B7,B6,,{16}3,4,{4}3,
{8}6h[2:1],4,2,8,,5/3h[8:3],7,1,
5,B6/B5,{16}B1,B2,{8}B3,B4/B3,{16}B7,B8,{8}B1,B3/B4,
{16}B5,B6,B7,B8,B1,4,{24}5,6,7,{32}8,1,2,3,4,5,6,7,8,1,2,3,4,5,6,7,
8,1b,{16},{8}5xh[2:1],,2>3-7[24:1],,2bh[8:3],,6b,
{4},{8}7bh[4:1],5b,3b,{32}2b,7x,6x,5x,4x,3x,2x,1x,8x,7x,6x,5x,
{16},B7h[8:3]/B6h[8:3],,2-5<7[32:3],{24},,,,,,,1x,8x,7x,6x,5x,2x,1x,8x,7x,6x,5x,
3x,2x,1x,8x,7x,6x,5x,2x,1x,8x,7x,6x,{8},1h[8:1]/5h[8:1],,7/3,
,6/5,2h[8:1],{16}7xh[16:3],5,4,3,2,1/6,{8},7/4,
{32},,,2-8<6[32:9],,,,,,,,2/6-1>4[8:1],{4},,,{8}6w2[8:1],
,,,{32}2x,1x,8x,7x,6x,5x,4x,3x,1x,8x,7x,6x,
5x,4x,8x,7x,6x,5x,4x,3x,7x,6x,5x,4x,3x,2x,1x,8x,7x,6x,5x,4x,{16}3x,6xh[16:3],{4},{16}6,
5,7,3,4,2,7,6,{8}8,4h[16:1]/3h[16:1],,{16}2h,6,
5,7,4,3,5,2,3,1,8,7,6,5,4,2,3,1,
7,6,8,E7/B6/B3/E3,{8},4b,,{16}6,5h,7,4,3h,4,
3h,5,2h,3h,1,6,5h,7,3h,4,2h,8,7,6,2h,3h,
{8}4h,{16}5,5,5,5,5,7,6,5,5,5,3h,2h,1h,6,
5h,7,2,2,,6-4>3[16:1],8,7,6,{8},{16}B7/B6/C/B2/B3,,B7/B6/E7,{8},{16}B2/B3/E3,
{8},{16}5,3h,1h,7,5h,4h,6,{8}2h,{16}5,3h,7,1h,
,B7/B8,E7/B6,B3,B4,B5,B1/B2,B8,B7,E7,B5,B4,B3,B2/B7,,E1/E5,
{8},6/2,{16}4h,3h,4,5,4h,3h,{8}4,7v4[8:1],2-5[8:1],
{4}2/7<6[8:1],7b,{8}7,{24}E8,B7,B6,{8}E6,{32}8,1,2x,3x,
{16}4x,5x/1h,{8},3/6h[4:3],1,7,5,3,1,
7,3h[8:7],5,7,1,5,7,1,
{24}5,4,3,2,1,8h[3:2],{8}6,4,2,6,4,2,
6h[16:11],4,1,7,4,1,3h[8:3],5,
7,{16}1,6h[16:13],{8}4,1,7,4,1,7,
,3h[8:11],5,7,1,5,7,1,
5,7,1,5,7,8h[2:1],6,4,
2,6,4,2h[4:3],4,6,8,4,
{4}6,{8}1h[8:5],3,5,7,3,5,
7x,3x,{16}6x,5x,4x,3x,2x,1x,8x,7x,6x,5x,4x/8x,7x,
6x,5x,4x,3x,{8}6xh[16:5],3,8,3h[16:7],5,7,
1,{16}7,8,{8}1h[16:5],7,{16}5,{8},{16}3h[16:5],{8}5,7,
1,5/7h[4:3],3,1,5,3,1,{16}5,8/7,
1,2,3,4/6,7,8,1,2,3,4,5,6,7,8,1,2,
3,4,5,6/4h[8:1],7,8,1,2,3,4,5/3h[8:1],6,7,8,1,2,
3,4,5/3h[8:1],6,7,8,1,2,3,4,5/2h[8:1],6,7,8,{32}1,2,3,4,
5,6,7,8,{8}1/3,{32}B4/E4,B3,B2,B2,E2,A1,{16},{8}6h[16:1]/4h[16:1],Ch[8:3],{16},,,,,{32}E6/B5,
B6,B7,E8,{16},{32}E8/B8/A8,B7,B6,E6,{16},4h[16:1]/2h[16:1],,Ch[16:7],{2},{32}D7/E7,
B7/B6,C,B2/B3,{16}E3,{32}E7/D7,B7/B6,C,B2/B3,{16}E3,B8/B7/E8,{8},{16}B3/E4/B4,,D8/E8,,C/B4/B3,
,B6/B5/E6,,C/B3/B2/E3,,E7/B6/B7,{8},E7/B6/B7,B2h[8:3]/B3h[8:3]/E3h[8:3],,,,{32}A7/E8/B7/D7,
E7,A6,D6,{16}A5,{32}A7/B7/E8/D7,E7,A6,D6,{16}A5,{2}B2h[2:1]/B3h[2:1]/E3h[2:1],
{8},{32}B2/A2/E2/D3,E3,A3,D4,{16}A4,{32}E2/B2/A2/D3,E3,A3,D4,{16}A4,{2}E7h[2:1]/B7h[2:1]/B6h[2:1],
{8},B2/E3/B3,{16},E7/B7/B6,{8},{16}B2/B3/E3,{8},{16}B7/B6/E7,{8},E7/B6/B7,
{16},E7/B7/B6,{8},{16}B2/B3/E3,{8},{16}B7/B6/E7,{8},E3/B3/B2,{32}B5,B4,B3,B2,B1,B8,B7,B6,
{8}B5,4xh[4:1],,2-6-8-4[2:3],,5,,5,
,5,,5,,6,,6,
,6-2-8p4[8:15],,3,,3,,3,
,3,,3,,3,,3,
,2-6-8-3[4:5],,5,,5,,4,
,4,,6,,6,,{16}8,1/7,
,2/6,6,5,7,2,3,1,7,6,8,3,2,4,6,5,
{24}7,2,3,4-2-8[4:1],{8},{24}6,7,8-2-4[4:1],,,,,,{8}C,,B6/B5/B7,
,7-5>4[16:1]/1-3<4[16:1],,,,{32}7b/1b,6/2,{16}3/5,,{32}8b/2b,7/3,{8}6/4,
{32}7b/1b,2/6,{16}5/3,,,,,,2-8-5>3[8:1],5,7,{8}3,{16},6,2,7,
,1-6>3[16:1],7,2,{4}8,{16}8-5>3>1[8:1],2,7,1,{4},{16}4,
6,2,8,5,3,7,1,{8}E7/E1,B2/B6,E6/B3,B5/B4,
{16},6<7-1>4[16:3],5,7,{8},5,,6h[8:1],{16},2-7-3[16:3],4,1,
{8}6-3-7[4:1],{2},{8}6/5-1<6[16:7],{4},{2}6-1V35[4:1],
{16}C,{8},{32}6/2,7,{16}8,{8},{32}2/8,3,
{16}4,{8},{32}6,5,{16}4/2,{8},{32}2,1,{16}8/5,{8},{32}7,6,{8}5/2,{32}1,2,{16}3/6,
{32},,,6,7,8-6>5[16:1]/2-4<5[16:1],{16},,,,,,,{32}2b/8b,7/3,{16}6/4,,{32}7b/1b,6/2,{8}5/3,
{32}8b/2b,7/3,{16}6/4,{8},{12}4,6,2,7,3,5,3h[8:1],{24},{8}6,
{6}4,{12}6-8>3[8:1],7,4,6,,4-2<7[8:1],5,3,{6},{2}6-8>4[12:1],
{12}5,3,6,2-7-4[16:1],{6}8,
{8},6-2-7[8:1],{4},{8}5,{16}3,7,1,8,,2h,
{8}6h,{16}4h,7-1>4[8:1],,C,,,,6,7,8,{4}1-3<6[8:1],
{8},{16}7,8,1-4<5[8:1],6,3,7,{4}2,{16}7,4,6,2,
7,1,5,3,,4,6,2,7,1,8,4,6,2,6,4,
8,2,{8},{4}7-5>4[8:1],{8}C/B2/B3,7x-1>3[8:1],{16},,,B6,
{4},{8}8/2,{16}B7/C/B3,B6/B4,3x,2x,1x,8x,7x,6x,{24},,,,,{12}7/4,
{6}4/7,{12}6,3,7,2,5,3,{6}4,
{12}5/2,2/5,,7/4,4/7,,6,5,{6}7/3,{12}5,3,
7,2,5,1/5,{6}1/5,{12}7,4,6,2,5,1,
3,7,4,7,5,3,5,2,,4,6,5,
7,4/7,4/7,3,6,1,4,7,2,3/7,{6}4/7,
{12}5,3,7,5,6,7/3,3/7,1,5,1,5,3,
7,3,7,1,3,5,7,4,6,2,8,4,
7,4/6,4/6,5/3,3/5,2/4,2/4,3,4,2,5,1,
5,7,3,5,{3}8<5-1>4[12:31],,,,,,,,,{24}C/B5/B4,
{96}B1,{48},{96}B2,{48},{32}B3,B4,B5,B6,B7,B8,A1,A2,A3,A4,A5,A6,A7,A8,{8}A1,
{12},7h[12:5]/5-3-8[8:1],{3},,{6}B8/B7,
{12},2h[12:5]/4-6-1[8:1],{3},,{6}B7/B2/B3/B6/Ch[12:1],
,{12}7/1,1/7,2/6,2/6,3/5,3/5,{48},{16}4,3,2,1,8,
7,6,5,4,{24}2,3,2,3,2,3,2,{48}3,2h[16:3]/3h[16:3],{12},,,,,{2}7b<6>5[8:1]/1b>3[8:1],
{16}B6f/B2f/B7/E7/E2/B1,B7/E7/B1/E2/B6f/B2f,E7/B7/B1/E2/B6f/B2f,E7/B7/B1/E2/B6f/B2f,E7/B7/B6/B1/B2/E2,E7/B7/B6/B1/B2/E2,B7/B6/E7/B1/B2/E2,B7/B6/E7/E2/B2/B1,
{4}B7/B6/E7/B1/B2/E2,{12}6,3,5,7,6-1V35[8:1]/5-1-3-5[8:1],{6},5,
,{12}6,3,7,2,6-8-2[8:1],3,5,2,{4},{12}1,
5,7,3,1,5,7,3,6-1>2[8:1],{6},{2}2-5-7[8:1],
{12}2,3,6,2,8,4,
7,5,3,6-1>3[8:1],,3-8-6[8:1],{3},{12}3,7,
2,5,4,6,2,4,6,2,,{16}2,3,{8}4/6,
{6},{24}8,7,{8}6/2,{24}2,3,4/6,{12},{24}5,6,{6}7/2,{24}2,3,{12}4/6,
{8},{24}2,1,8/6,{8},8/6,,{32}7,6,{16}5/3,{8},{32}7,6,{16}5/3,
,{32}2,1,8/7,2,6/3,5/4,{12},6,3,7,2,8,1,7,2,
6,3,5,4-1-7[8:1],{4},{12}7-3-1-5[8:1],{48},{16}6,{4}5,
{32},,,,,,,,,,,,,7,8,1/4,,,,2,3,4/7,,,,4,3,2/7,,,,,,,,,,7,
6,5/2,{12},2/5,4,7,1,5,6/3,,1h/5h,
{4}7h/3h,{12}2x,3x,4x,1,8x,7x,6x,5/3,2,
1,8x,7x,6x,5/4,3,2,1x,8x,7x,6x,5x,
1,2,3,6x/4h[12:1],7,8,{16}1h[12:1],{8},{16}B4/B3,B5,B6,B7,B8,
B1/B2,B3,B4,B5,B6/B7,B2/B3,B7/B6,B2/B3,B8/B1,B2/B3,B4/B5,B6/B7,{12}6,5,7,
{16}3,4,2,7,6,8,2,3,1,1/8,7/2,6/3,{4}5h/4h,
{16}7h[16:1]/6-2-4[8:1],{8},,,{16}B6/C,{12},2h[192:11]/3-7-5[8:1],{3},{16}B2/E3,
{4},{16}5h[16:1]/1h[16:1],,2/6,7/3,8/4,1/5,2,3,4,5,6,
7/2,{8},{16}6h[16:1]/5-2-8[8:1],{8},B7/B6,{16},,,C,,,,B7/B1,
,B6/B2,,B2/B6,{8}1h[16:1]/5h[16:1],{16}2,6,3,7x,6x,5x,{24},4/3,5/2,6/1,{12}7h[16:1]/8h[16:1],
{4},B7/B6/B2/B3/Cfh[16:1],{8},,,,,,,,,,,,,Ch[16:1]/B7h[16:1]/B6h[16:1]/B2h[16:1]/B3h[16:1],
E
