&title=馬→午马→UMA!
&artist=初音ミク/洛天依Official/雨衣/nogi
&first=0.01
&des==v=
&lv_5=13+
&inote_5=(160)
{16},,,,,,,,1b,,,,4xq7[2:1],,,,,,,,1,,,,,,2,,
2xq5[2:1],,,,,,,,7,,,,,,8,,8xq3[2:1],,,,,,,,5,,,,,,6,,6xq1[2:1],,,,,,,,
2h,,,3h,,,3h,,
4-7[4:1],,,8,,,2,,2-5[4:1],,,6,,,8,,8-3[4:1],,,4,,,6,,6-1[4:1],,,2,,,4,,
{16}4,3,2,1,8,7,6,5,
{24}4h,3,2,1,8,7,6,5,4,3,2,1,8bq5[8:1]/4q1[8:1],,,,,,,,,,,,
{16}5x,1x,3x,7x,2bx/6bx,,,,1<6[8:1],,,7,1,,5,,8>3[8:1],,,7,8,,6,,
5-1[8:1],,8,,7V13-5[4:1]/5,,,,7,,,,1b,,,,8>3[8:1],,,2,8,,4,,1<6[8:1],,,2,1,,5,,
3-5[8:1],,2,,7-3[8:1],,8,,1b-5-2[4:1]b,,,,,,,,
6-1[8:1],,,5,6,,4,,3-8[8:1],,,4,3,,5,,
6-1[8:1],,,5,6,,4,,2-5[8:1],,,1,2,,8,,
{12}8,7,6,4,3,2,7,6,5,3,2,17,
{16}6h[1:1],,,E8,,,C,,E4h[4:1]f,,,,,,,,
3x,,4,2x,5,,3x,4,2x,,4,2x,5,,3x,4,2x,,4,2x,5,,3x,4,2bx-5[8:1],,8b,,6b,,,,
6x,,5,7x,4,,6x,5,7x,,5,7x,4,,6x,5,7x,,5,,7/4x,,6x,5,7bx-4[8:1],,,,E3/B3,,,,
3x,,4,2x,5,,3x,4,2x,,4,2x,5,,3x,4,2x,,4,2x,5,,3x,4,2bx-5[8:1],,4b,,6b,,,,
6x,,5,7x,4,,6x,5,7x,,5,7x,4,,6x,5,7bx-4[12:1],,5bx-2[12:1],,3bx-8[12:1],,1bx-6[4:1]b,,
{2},
{16}3x,,4,3x,5,,3x,4,2x,,4x,3,6,,3,4x,1,,4x,3,7x,,3,4,8bx-4[8:1],,2b,,4b,,,,
6x,,5,6x,4,,6x,5,7x,,5,6x,3,,6x,5,8,,1x/2x,,34,,5/6x,6x,7-4[8:1]/8,,,,E3/B3,,,,
4x,,6,5x,7,,3x,4,2x,,7,5x,8,,2x,4,1x,,7,6x,8,,2x,3,1b>4[8:1],,6b<1[8:1],,5b,,,,
2x,,7,8x,6,,1x,8x,2x,,4x,3x,5x,,2,1,3b/8bx,,,,
3<6[2:1],,,,,,,,,,,,,,,,3<6[2:1],,,,,,,,,,,,,,,,3<5[2:1],,,,,,,,,,,,
,,,,3-6[4:1],,,,,,,,7,,7,,
8>2[8:1],,,5,,,3,,3>1[8:1],,,,,,,,7>2[16:3],,,5,,,3,,3>1[16:3],,,,,,,,
6<2[4:1],,,5,,,3,,3>1[8:1],,,,,,,,5<2[16:5],,,4,4V25[16:5]b,,3,,,,,,,,,,
{16}7,,,7,,,7,5,6,,,6,,,6,5,7-4[8:1],,,4,,,3,5,2-5[8:1],,,5,,,6,4,
7-3[8:1],,,3,,,2,4,1-5[8:1],,,5,,,6,4,8-4[8:1],,,4,,,3,5,2<7[4:1]b,,,,,,,,
6-1[8:1],,,26,,,3,8,4-8[8:1],,,47,,,6,1,7-3[8:1],,,37,,,2,4,1-5[8:1],,,1/6b,,,7,4,
8,3,7,2,6,1,5,8,
{16}4x,2x,6x,8x,5x,3x,7x,1x,E6/A6,,,E4/A4,,,E2/A2,,8bv8[8:1],,,,,,,,
2-4[8:1],,1,5,2,,6,,E5/A5/B5/A7/E7/B7,,,,8-4[8:1],,,2,8,,3x,,5/2x,,6,5,
7,,35,,2,,E5,,1-3[8:1],,2,4,1,,7,,E3/A3/B3/A5/E5/B5,,,,
6<1[8:1],,,3,6,,2,,3<5[8:1],,,,6hx[8:1],,,,6hx[8:1],,,,
4-1[8:1],,7,7,4x,,6,,E1/B1/A1/E2/E5/B5/A5/E6,,,,2-5[8:1],,7,7,2,,6,6,4,,7,7,
2,,35,,6,,E4,,
5-8[8:1],,2,2,5x,,3,,E5/B4/A4/E4/E1/B8/A8/E8,,,,7,,2,2,
1x<6[16:3],,7x<4[16:3],,5x>2[16:3],,3bpp8[8:3],,,,,,,,,,
1h[2:1],,,3,,,5,,7h,,2h/8h,,3h,,6h/5h,,8h[2:1],,,6,,,4,,2h,,7h/1h,,6h,,3h/4h,,
1h[2:1],,,3,,,5,,7h,,2h/8h,,3h/4h,,6h/5h,,8h[2:1],,,6,,,4,,2b-6[4:1]b,,,,,,,,
5h[2:1],,,7,,,1,,3h,,6h/4h,,7h,,2h,8h,4h[2:1],,,2,,,8,,6h,6h,3h/5h,,2h,,7h/8h,,
1,6,1,6,2,5,2,5,3,4,3,4,Ch[128:1],,,,
5<7[8:1],,4,,1>3[8:1],,8,,6,,7,,2,8,3,1,3<5[8:1],,2,,7>1[8:1],,6,,5<3[4:1],,,,,,,,
5<7[8:1],,4,,1>3[8:1],,8,,4<7[16:3],,6<1[16:3],,3x/4x,,,,3<5[8:1],,2,,7>1[8:1],,6,,
5qq4[4:1],,4,,5x/7x,,8,,E8/A7,,E3/A3,,6<8[8:1],,3<5[8:1],,6,,3,,7,2,8,3,
8-2[8:1],,3-5[8:1],,8,,3,,1>4[16:3],,3<6[16:3],,1b/7b,,,,8,,7,7,5x,,,,25,,3,,4x,,,,
1x>3[12:1]/5x<7[12:1],,,,1>4[8:1]/5<8[8:1],,,,1-5[4:1]/5,,,,,,,,
3-1[8:1],,,,5-3[8:1],,,,7,,7,,5,,6,,2-4[8:1],,,,6-4[8:1],,,,4-2[8:1]*-6[8:1],,,,,,,,
6-8[8:1],,,,4-6[8:1],,,,2,,2,,4,,3,,6-4[8:1],,6-8[8:1],,,,,,2b,,,,
8z4[4:1],,,,,,,,1-4[8:1],,,,,,,,
5-8[8:1]*-3[8:1],,,,,,,,4-1[8:1]*-6[8:1],,,,,,,,26,,,,1,,4,,35,,7,,5,6,4,7,3,8,2,1,
C,,,,E2/D2,,,,D6/E6h[4:1],,,,,,,,
2h[4:1],,,,,,,,4h[4:1],,,,,,,,6h[4:1],,,,,,,,8h[4:1]/5x,,,,,,,,
6h[4:1],,,,,,,,8h[4:1],,,,,,,,2h[4:1],,,,,,,,4h[4:1]/1x,,,,,,,,
3h[4:1]/4h[4:1],,,,,,,,4h[4:1]/5h[4:1],,,,,,,,5h[4:1]/6h[4:1],,,,,,,,7,,4,,36,,,,
{12}1,2,3,5,6,7,82,3,4,6,7,8,5b<3[4:1],,,,,,Ch[4:1]f,,,,,,
{16}28,,4,4,3,,56,,28,,4,4,2,,56,,17,,4,4,2,,17,,5w1[8:1],,28,,5b,,,,
46,,5,6,5,,8,7,8,,3,4,3,,2,1,2-6[8:1],,4,,5>2[8:1],,7,,5b/8-3[8:1]*-5[8:1],,,,,,,,
71,,5,5,6,,43,,71,,5,5,7,,43,,82,,5,5,7,,82,,1q7[8:1]/7p1[8:1],,35,,1b/7b,,,,
2,,1-3[12:1],,4-1[8:1],,7-5[8:1],,4x-7[8:1],,7x,,4x,,,,7-3[8:1]b,,,,4-1-6[2:1]b,
E
