&title=有明/Ariake
&artist=SIINCA
&first=0.02
&des=Astesia
&lv_5=1
&des_5=Astesia
&inote_5=
(190){4},,,,{2}5b/4b>5[2:15],
5h[4:1],
7h[4:1],6h[4:1],
8h[4:1],7h[4:1],
C,4h[4:1],
2h[4:1],3h[4:1],
4h[4:1],2h[4:1],
1h[4:1],3h[4:1],
{1}4>1b[2:1],
{8}8,8h[8:3],6,5,E4,E3,E5,E2,
6,6h[8:3],7,5,E4,E3,E6,E2,
7,7h[8:3],6,5,E4,E3,E7,E2,
8V63[2:1],8V25[8:3],,,,,,,4,
4h[8:3],2,1,E8,E7,E1,E6,
2,2h[8:3],3,1,E8,E7,E2,E6,
3,3h[8:3],2,1,E8,E7,E3,E6,
4,4,1,2/3,5,5,8,7/6,
{1}4bqq5<4[2:7],
,1qq5[2:3],
{4},,,,2h[4:1]/8h[8:1],
{8}4h[4:1],3h[4:1],,5h[4:1],{4}4h[4:1],
{8}6h[4:1],5h[4:1],,7h[4:1],{4}6h[4:1],{8}8,8,
{4}1h[4:1]/7h[8:1],{8}3h[4:1],2h[4:1],,5h[4:1],{4}4h[4:1],
{8}7h[4:1],6h[4:1],,8h[4:1],{4}1h[4:1],{8}7,7,
5qq5qq4[2:3],8,7,6,8,7,6,8,
7,6,8,7,6,8,7,6,
5qq5qq6[2:3],1,8,2,1,8,2,1,
8,1,2,8,1,2,8,1,
2qq2qq1[2:3],5,3,4,5,3,4,5,
3,4,5,3,4,5,{4}3xh[4:1],
{8}8>4[2:1],7,6,5,7,6,5,7,
6<2[2:1],5,3,4,5,3,4,5,
{4}8h[4:1],{8}4,{16}3,1,{8}2,8/4,{16}6,5,{8}7,
{4}8/4h[4:1],{8}7,{16}5,4,{8}6,3/7,{16}1,8,{8}2,
{4}3/7h[4:1],{8}2,{16}3,5,{8}4,2/6,{16}8,7,{8}1,
2/6,{16}3,3,{8}4,{16}5,5,{8}4,1/7,{16}2,6,3,5,
{8}4h[8:3],1,7,3,5h[8:3],8,2,6,
4x/5x,4/1,4/7,4/3,4x/5x,5/8,5/2,5/6,
{16}4x,4,5,3,6,6,8,7,1,6,2,7,3b-7[0.9474##0.0979],8h[16:9],{8}4bh[2:1],
{16},,,,,,,,A3f,,,5x,,,{8}1x,
{2}4x-1[8:1]/8x-5[8:1],{16}3,4,3,6,5,6,3,4,
3,6,5,6,3,4,2,5,3,4,2,6,6,5,7,5,
6,2,4,3,6,5,7,5,6,6,5,7,7,5,6,6,
5,4,6,5,7,4,8,8,{2}1bx-5-1[4:1],
{32}7bx>4>7[2:3],E7f,B6,B5,{8}E5,,6,{4}6,{8}5,5,
,7,{4}7,{8}5,5,,6,
{4}5/7h[4:1],{8}2,1,{4}8/3h[4:1],{8}5,4/6h[4:1],
,8,{4}7/1h[4:1],3>5b[4:1],4,
3bh[4:1],{8}4-7[8:1],4,1,4-8[8:1],,8,
{4}4x-1[8:1],{8}1,8,7,1/6-1[8:1],{4}2/5,
3bh[4:1],{8}8-3[8:1],8,3,8-4[8:1],,4,
{4}8x-5[8:1],{16}5,4,3,2,{2}1w5[8:1],
{4}7bh[4:1],{8}5-2[8:1],5,8,5-1[8:1],,1,
{4}5x-8[8:1],{8}8,1,2,8/3-8[8:1],{4}7/4,
6bh[4:1],{8}1h[8:1],3h[8:1],5h[8:1],7h[8:1],1h[8:1],3h[8:1],
{2}5qq4b[16:5],E7f/B7/B6,
{8}1-3[8:1],1-5[8:1],1,1x,8-6[8:1],8-4[8:1],8,8x,
2-6[8:1],2-8[8:1],2,2x,7-5[8:1],7-3[8:1],7,7x,
1-4[8:1],1-6[8:1],1,1x,8<5[8:1],8>3[8:1],8,8x,
6h[8:1],4h[8:1],8h[8:1],3h[8:1],7h[8:1],1h[8:1],5h[8:1],2h[8:1],
{2}7bp4[4:1],{8}1,1>4[8:1],1,1x,
1<6[8:1],1,1x,1-5[8:1],1,1x,1qq5b[8:7]*pp5[8:7],1,
{1}1bx,
{16},,3/7,4,5,6,7,8,{8}1,2x/8x,4x/5x,1x/7x,
2bxh[8:1],{16}5,4,,6h[8:1],,8,{8}7,{16}1,6,8,5,1,4,
{8}8h[8:1],{16}7,5,6,4,8,4,5,3,1,5,6,4,2,2,
4,4,5,3h[8:1],,6,,8,8,3,1,4,8,5,1,6,
8,8,5,6,3,4,2,2,7x,6,5,4,8x,1,2,3,
{8}7bxh[8:1],{16}4,5,,3h[8:1],,1,{8}2,{16}8,3,1,4,8,5,
{8}1h[8:1],{16}2,4,3,5,1,5,4,6,8,4,3,5,7,7,
5,5,4,6h[8:1],,3,,1,1,6,8,5,1,4,8,3,
1x,2,3,4,1x,8,7,6,{24}1x,2,3,5,6,7,1x,2,3,7,6,5,
{1}4/1b<2>1b[2:5],
,7h[4:3],
{4}3h[4:1],4h[4:1],5h[4:1],6h[4:1],
{8}1,1/8,{16}2,3,4,5,{8}2/6,1,{16}8/4,7,6,5,
{8}8/4,1,{16}2,3,4,5,{8}2/6,1,{16}7/8,6,5,4,
{8}3/7,8,{16}1,2,3,4,{8}5/6,7,{16}8/4,1,2,3,
{8}4h[4:1],{16}1,8,7,6,5,4,3,1,3,5,3-7b[8:1],8,3,6,
{1}3b<4-2<1-5<6-8<7-3[4:5],
,A1/Cf/A4/E4/B3/A5/E6/B6/A2/B2/E2/B1/B8/B7/E8/A7/D2/D8/A8/D1/D7/D3,
,,,{16},3h[2:1]/4-1[16:7],
,,,,,,,,,,,,,,,6h[2:1]/5-8b[16:7],
,,,,,,,,,,,,,,,3h[2:1]/4-8[16:7],
,,,,,,,,,,,,,,{1}6/5w1b[2:1],
{8}2/1,2/1,4-8[8:1],3,4/5,6,7,7,
1/8,1/8,2-5[8:1],4,2/5,7,8,8,
2/1,2/1,4-7[8:1],3,2/4,1,8,8,
1/7,6>3[8:1],,3/6,{4}2<7b[8:1]*p6[8:1],2x,
{8}4/5,4/5,3-8[8:1],2,3/7-3[8:1],6,5,5,
2/4,2/4,1-5[8:1],5,1/6-2[8:1],7,8,8,
1/3,1/3,{12}7,1,8,4,6,2,8,3,5,
{8}4,6/2-6[8:1],,4,{4}4-7b[8:1]*-8[8:1],4x,
{24}1b/6b,2/5,{12}3/4,,{4}A7/B7/B8/A8,{8}3qq8[16:5],3,4,5,
{24}7b,6,{12}5,,{4}8x>3[8:1],{8}4pp7[16:5],4,3,2,
{24}1b,2,{12}3,,{4}7x<4[8:1],{8}3qq8[16:5],3,4,5,
6,6,7/8,7/8,6-2b[8:1]*-1[8:1],5,{24},,,,,,8b/3b,
7/4,{12}6/5,,{4}A2/B2/B1/A1,{8}6pp1[16:5],6,5,4,
{24}2b,3,{12}4,,{4}1x<6[8:1],{8}5qq2[16:5],5,6,7,
{24}8b,7,{12}6,,{4}2x>5[8:1],{8}6pp1[16:5],6,5,4,
3-5[8:1],3,1,8,7-3b[8:1]*-1[8:1],5/6,,,2/5,
{16}3,3,{8}4,2/5,{16}1,1,{8}8,2/7,{16}6,6,
{8}5,7/4,{16}8,8,{8}1,3/4-8[8:1],2-5b[8:1],3x/4x,2x,
7,{16}6,6,{8}5,1/8,{16}2,2,{8}4,7/8,{16}5,5,
{8}4,3/6,{16}2,2,{8}1,{16}4/8x-4[8:1],7,6,5,{4}8x/4x,
{16}3b,4,1,5,3,6,1,7,8b,5,1,7,2,5,3,7,
8b,4,3,5,8,6,3,7,8b,4,1,7,2,4,3,7,
{24}5,4,3,2/8,7,6,5/1,2,3,4/6,7,8,{32}1/5,4,3,2,1,8,7,6,5/8,1,2,3,4,5,6,7,
{4}8/4bh[4:3],{24},,,,,,,,,,,,1,2,3,1/4,2/5,3/6,
{1}7b/4b>5qq1[2:7],
,5xpp1b[2:3],
{8},,,,,,,,3/2qq7[2:3],
4,5,6,5,4,3,4,
5,6,5,4,{4}3,E7,
{8}2/3pp6[2:3],1,8,7,8,1,2,1,
8,7,8,1,{4}2,1xw5b[8:1],
{32}B8,Cf,{16}B4/B3/B5,
E
