&title=AVALON
&artist=sasakure.UK
&first=-0.01
&lv_5=13+
&des_5=NIPPONIA NIPPON
&inote_5=
(200){4},{16},,,,,,,,,,,,,,,,7,
2,6,3,{2}5v2V47[4:7],
,,,3h[1:2],
,,,6h[8:9],
{8},,,,,4h[1:1],,,,,,,,7h[1:1],
,,,,,,,2h[8:27],
{1},,,{8},{16}B7,
B6,
{1}E6,
{8},,,,,,,2/7-4[8:1],
,1,{4}1,,1/8-5[8:1],
{8}2,2,,3,3,6-4[8:1],,,2,
2,,,{4}7-5[8:1],{8}7/1-3[8:1],8,
,7,7,6,{4}6-8[8:1],{8}6,4,
,,{4}5/2-5[8:1],{8}2,7,,6h[16:1],
,,,3v1[8:1],,,5,5,
{16},,,,B8,B7,{8}B6,{16}B2,B3,{8}B4,{24}B8,B7,B6,E6,,,B1,
B2,B3,E4,{48},,,,{16}8,7,{8}6h[8:3],,,{4}2h[2:1],
,6,{8}5/4,6,7-1[8:1],1-3[8:1],
3-5[8:1],5-1-6-2-4b[8:11],,,,,,,,,,,,,,6h[2:1],
,,,5h[2:1],,,,4h[2:1],
,,,3h[2:1],,,,2-5[4:1],
,,,7-5[4:1],,,,3p2[8:3],
,,,,,,,4,
4,6,4,6,4,5,3,6h[4:1]/4h[8:1],
,,{4}7h[4:1]/3h[8:1],{8},3/6h[4:1],{4}3,
{8}2/7h[4:1],3,,2/8h[4:1],{4}1,{8}6h[4:1],{16}8,1,
2,3,{8}7h[4:1],2,1-4[8:1],6,1,7-4[8:1],2,
7,1-3[8:1],6,1,7-5[8:1],4,{16}7,1,2,3,
{8}4,6-8[8:1],4,6,2-4[8:1],4,2,8-5[8:1],
6,8,1-4[8:1],3,{16}1/4,5,6,7,{8}8,2-5[8:1],
6,2,8-4[8:1],3,8,2-5[8:1],5-1[8:1],2,
7-3[8:1],2,7,8,8,1-4[8:1],4-2[8:1],1,
7-4[8:1],5,7,2-5[8:1],5-3[8:1],2,7-5[8:1],1,
7,3h[8:1],,7-4[8:1],4V68[8:1],7,2-5[8:1],1,
2,7-5[8:1],1-7[8:1],7,{4}1>4[16:3],{16}1/5,6,7,8,
{1}1x/5xh[8:5],
{8},4/B7,,,,5,,,,6-1-4-7[4:5],
,,,,,,{2}7h[16:1],
3h[16:1],
{8},3-7-2-5[8:11],,,,5h[16:1],,,,,,,{2}6h[16:1],
{8}6/2,3/5,{4}B8/B1/B2/B3/B4,6v8[8:1]/5v3[8:1],5/6h,
{1}1h[1:2],
{8},,,,,,,,,,7h,
6h/4h,{16},3h[16:1],,,{4}2h,
{16}1h,1h,,,{8}8h,6-2[8:1],{16},,,,,,,,B7,
B6,B5,B4,{8}B3,1bx/2x,,6x,5,3,
3,{24}4x,6,4,{8}6,2,2,3,4,6h/5h[16:1],
,4,3,2h[16:1]/1h,,4,5,4,
6/3,{24}3x,5,3,{8}5,6,3,5,3,4h[16:1]/5h,
,3,6,4h[16:1]/3h,,5/4,5/4,6,
7,8,1,2q4[8:3],,,,,6,
6pp1[8:3],,,,,,5,
,6V47[8:3],,2h[4:1],,,,,,5,
,4v2[4:1],,,,6,
,6/B8,,4,,3V15[8:3],,3x,
,,,7,,,,6/B1,
{4},{16},{64},,,4,{8}5,,,,3,
,,5h[8:1],4h[8:1],7h[8:1],3h[8:1],,6,
Ch[4:1],{16},,,,A8,A7,A6,A5,{8}A4,,5/3,
,,,4/3x-1[8:1],,,,6/5x-3[8:1],
,,,7b,,,,1/8-3[8:1],
,,,5,,,,3/6v8[8:1],
4,5v3[8:1],,5b,7bh[8:7],,,2,
,,,5,,,,3/6,
{16},,,,8,7,6,5,{8}4>2[8:1],2<8[8:1],8<6[8:1],6-1-4v7b[8:11],
{1},{4},,,{8},{16}6,
5,
,,,,,,{8}4>4[8:57],,,,5,
,,,6,,,,7h[16:1],
,,,,,,,,,,,,{2}B7h[16:1],
{16},,,,,B2h[16:1],,,,,,,,,,,,,,B4h[16:1],
,,,,,,,,,,,,B6h[16:1],
,,,,,,,,,,,,B2h[16:1],,,,,,,,,,,,,{8}Ch[16:1],
{16},,,,,,3,
4,3,5,3,4,3,5,{8}3,{16},,,,,,,,5,
4,6,3,{4}5/4v1[8:1],{8}6/4,7-3[8:1],
,7/4,{4}5b-1[8:1],5-7>8[8:1],5-3>2[8:1],
5w1[8:1],5b,7-3[8:1],{8}7/3,1-4[8:1],
,1/5,{4}7-3[8:1],7>2[8:1]*<4[8:1],7-3[8:1],
7w3[8:1],7b,1h[8:3],{8}4,5h,
,5,{4}6,{8}7>3[8:1],3<7[8:1],,,{2}1h[4:1],
{16}1,8,1,7,1,6,1,5,
1,5,1,2,3,4,5,6,7,8,1/5,2,3,4,5,6,
{4}7b-3[8:1]/8b-4[8:1],7b/8b,{8}2h[4:1],4,5,2/6h[4:1],
3,4,5/3h[4:1],6,7,4/8h[4:1],5,6,
{4}7-3[8:1],7b,{8}5h[4:1],3,4,2/5h[4:1],
{4}3,{8}1/5h[4:1],2,,8/5h[4:1],{4}1,
{16}8,1,2,3,{4}4/7h[4:1],1-4[8:1],{8}7,7,
,5,5h[1:1],{16}1,8,7,6b,,,1,2,3,4b,
,,,,8,7,6,5,4,3,2,1,8,7,6,5,
8/4,3/7,2/6,5/1,{4}4-7[8:1]/8-3[8:1],{8}8b/4b,{16},,,,3/7,2/6,
{4}1-5[8:1]/5-1[8:1],Cf,{16},,1,2,3/4,5,6,7,
8/1,2,3,4,5/6,7,8,1,{4}2b-4[8:1],1b-5[8:1],
8b-6[8:1],8b,{16}1,2,3,4,5,6,7,8,
1/5,4,3,2,1,8,7,6,{4}5/1b>4[8:1],1b<6[8:1],
1b-5[8:1],1b,6-1[8:1],{8}6,4,
,2,{4}1,8-4[8:1],{8}5,5,
,7,{16}1,2,3,4,{2}8h[4:1]/5xh[4:1],
7xh[4:1]/4h[4:1],{16}3,5,3,5,3,6,3,5,
2,6,2,5,2,6,1,5,{8}1x-5[8:1],4,1,7-4[8:1],
4,7,1-4[8:1],6,1,5V71[8:1],2,5,
2-6[8:1],2,{4}2b,{8}1-4[8:1],1,1/7-4[8:1],7,
7/2-6[8:1],2,2/8-5[8:1],8,{4}8/3h,2h[4:1],
4h[4:1],7h[4:1],,6h[8:1]/4h[8:1],
{8},7h[8:1]/3h[8:1],{24},,,,,,{12}7/3b,2/6,1/5,8/4,,,4/8,
1/5,6/2,7/3,{24},,,,{8}6/2,6/2,5/1,1/5,
8/4,8/4,1/5,1/5,{16}6,1,4,3,5,1,2,6,
8,3,7,4,1,5-1b[8:1],2b-6[16:1],6,{2}1,
{1},,,{8},6h[8:7],
,,,,,,{1}5h[1:1],
{4}4z8<5[2:1],,,B7h[8:21]/B3h[8:21],
E
