&title=キティ
&artist=25時、ナイトコードで。
&first=0
&lv_2=3
&lv_5=14.0
&des=NaTsuYu
&inote_2=(145)
{8},,,,,,,,
{8}1,,,,,,,,
{8}1,,,,,,,,
{8}2,,,,,,,,
{8}2,,,,,,,,
{8}3,,,,,,,,
{8}3,,,,,,,,
{8}4,,,,,,,,
{8}4,,,,,,,,
{8}5,,,,,,,,
{8}5,,,,,,,,
{8}6,,,,,,,,
{8}6,,,,,,,,
{8}7,,,,,,,,
{8}7,,,,,,,,
{8}8,,,,,,,,
{8}1/8,,,,,,,,
{8}8h[16:16],,,,,,,,
{8},,,,,,,,
{8}7h[16:16],,,,,,,,
{8},,,,,,,,
{8}6h[16:16],,,,,,,,
{8},,,,,,,,
{8}5h[16:16],,,,,,,,
{8},,,,,,,,
{8}4h[16:16],,,,,,,,
{8},,,,,,,,
{8}3h[16:16],,,,,,,,
{8},,,,,,,,
{8}2h[16:16],,,,,,,,
{8},,,,,,,,
{8}1h[16:16],,,,,,,,
{8},,,,,,,,
{8}B1,,,,,,,,
{8}B2,,,,,,,,
{8}B3,,,,,,,,
{8}B4,,,,,,,,
{8}B8,,,,,,,,
{8}B7,,,,,,,,
{8}B6,,,,,,,,
{8}B5f,,,,,,,,
{8}1,,,,1,,,,
{8}2,,,,2,,,,
{8}3,,3,,3,,3,,
{8}3bx,,,,,,,,
{8}4,,,,4,,,,
{8}5,,,,5,,,,
{8}6,,,,6,,,,
{8}7,,,,1x/8x,,,,
{8}8,,,,8,,,,
{8}7,,,,7,,,,
{8}6,,6,,6,,6,,
{8}6bx,,,,,,,,
{8}5,,,,5,,,,
{8}4,,,,4,,,,
{8}3,,,,3,,,,
{8}2,,,,2,,,,
{8}1h[16:16]/8h[16:16],,,,,,,,
{8},,,,,,,,
{8}7-4[16:12],,,,,,,,
{8},,,,,,,,
{8}3-8[16:12],,,,,,,,
{8},,,,,,,,
{8}2-5[16:12],,,,,,,,
{8},,,,,,,,
{8}6-1[16:12],,,,,,,,
{8},,,,,,,,
{8}1b/8b,,,,,,,,
{8},,,,,,,,
&inote_5=(145)
{24},,,,,,,,,,,,
{24}1,,8,,,3>8[16:2],,4,,,,3/7,
{24},,,,,,,,,4/5,,,
{24}8,,1,,,6<1[16:2],,5,,,,6/2,
{24},,,,,,,,,1>4[16:2],,,
{24}2,,,8<5[16:2],,,7,,,1>4[16:2],,,
{24}2,,,,,,5-1[16:2],,,6,,,
{24}4-8[16:2],,,3,,,5-1[16:2],,,6,,,
{24},,,2b,,,,,,,,,
{24}1,,8,,,1v6[16:2],,7,,,,1/6,
{24},,,,,,,,,4/5,,,
{24}8,,1,,,8v3[16:2],,2,,,,8/3,
{24},,,2,,,1,,,8,,,
{24},,,2/5,,,3/6,,,4/7,,,
{16}2,1,2,1,,4/5,4/5,,
{16}7,8,7,8,,4/5,4/5,,
{16}2b/7b,,,,,,,,
{16}1,8,1,8,1,8,1,8,
{16},2bx/7bx,,,2,8,2,8,
{16}1,,1,,7,1,7,1,
{16}8,8,2,2,7,7,1,1,
{16}2/8,2/8,,,1/7,1/7,,,
{16}8x/1x,,8x/1x,,7,1,7,1,
{16}8,,8,,2,8,2,8,
{16}1,1,7,7,2,2,8,8,
{16}7/1,7/1,,,8/2,8/2,,,
{16}1x/8x,,1x/8x,,2,8,2,8,
{16}1,,1,,7,1,7,1,
{16}8,8,2,2,7,7,1,1,
{16}2/8,2/8,,,1/7,1/7,,,
{16}8x/1x,,8x/1x,,7,1,7,1,
{16}8,,8,,2,8,2,8,
{16}1,1,7,7,2,2,8,8,
{16}7/1,7/1,,,8/2,8/2,,,
{16}1p4[16:4],,,,1/8-5[16:2],,,,
{16}8,,3,3,7,7,2,2,
{16},1/8pp3[16:6]*qq5[16:6],1/8,,,,,,
{16},,,,,,4,5,
{16}4-8[16:2],,3,,5-1[16:2],,6,,
{16}4>1[16:2],,3,,5<8[16:2],,6,,
{16}3-8[16:2],,2,,6,,,7b,
{16},,2,,8,,1,,
{16}1p3[16:3]/7q5[16:3],,,,1/7,,,,
{16}2,6,3,7<4[16:2],2,6,3,7,
{16},1b,1b,,,,,,
{16},,1h[16:2],,7,2,,6h[16:3],
{16},,5h[16:2],,4h[16:1],3h[16:2],,5h[16:2],
{16},1,,2,6,2,6,3,
{16},7b,,,,,,,
{16},4/5,,2,1,2,7,8,
{16}7,,1/6,1/6,,2/7,,3/8,
{16}3/8,,,,5-7[16:2],4,5-1[16:2],4,
{16}5bx,,5bx,,,6,8,7,
{16}1,,,,4>2[16:2],5,4,5,
{16}4bx,,7x,7x,4>2[16:2],5,4,5,
{16}4bx,,7xA,7x,4,5,4,5,
{16}3v8[16:2],6,3,6,3bx,,7x,7x,
{16},7b,,,3-8[16:2],4,3,5,
{16}3,,7x,7x,,6x,,5x,
{16}5x,,,,3-8[16:2],4,3,5,
{16}3,,7x,7x,,5x,5x,6x,
{16}6x,,,,,8,7,1-4[16:2]/6-3[16:2],
{16},,,1/6,,,2/5,,
{16}7-4[16:1]/8-3[16:1],,,7/8,,,{24}2/5,,,1,7,,8,6,,
{16},3qq4[16:4]/5pp4[16:4],,,
{16}3/5,,,,,,,,
{16}1>4p8[16:8],,,,,,,,
{16}8<5[16:4],,,7,,,,,
{16}8<5q1[16:8],,,,,,,,
{16}1>4[16:4],,,2,,,,,
{16}1>4p8[16:8],,,,,,,,
{16}8<5[16:4],,,7,,,,,
{16}8<5q1[16:8],,,,,,,,
{16}1>4[16:4],,,2,,,,,
{16}1>4[16:2],,,,1h[16:2],,,,
{16}8<5[16:2],,,,8h[16:2],,,,
{16}1>4[16:2],,,,1h[16:2],,,,
{16}8<5[16:2],,,,8h[16:2],,,,
{16}1>4[16:2]/8<5[16:2],,,,1/8,,,,
{16}2-5[16:2],,7-4[16:2],,2qq7[16:6],,7,X,
{16},,,,,,,,
{16}6,,5,,4,,3,,
{16}2p4[16:2]/8q6[16:2],,,,2>5[16:2]/8<5[16:2],,,,
{16}2/8,,,,7/8-5[16:2],,1x,,
{16}1-4[16:2]/8,,2x,,1/2,,3x,,
{16},,7,,8-4b[16:2],,1,,
{16}2-6b[16:2]/8/B8f,,,,2/7-3b[16:2]/B
2f,,,,
{16}1-5b[16:2]/7/B7f,,,,1w5[16:4]/B1f,,,,
{16}1b,,,,,,,,
{16}2/1-4[16:2],,8x,,8-5[16:2]/1,,7x,,
{16}8-3[16:2]/7,,,,1/8-5[16:2],,,,
{16}7/8,,,,3/4,,3-7[16:2]/4-8[16:2],,
{16},,3/4,,,,4/5-8[16:2],,
{16},,4/5,,3,,1-6[16:2]/2,,
{16}8,,1/2,,3,,4/5,,
{16}6,,7/8-3[16:2],,1,,7/8,,
{16}6,,4/5,,3,,1<4[16:6]/2,,
{16}4,,3,,2,,1,,
{16}8-5[16:2],,,,2-5[16:2]/8,,3,,
{16}2/7-4[16:2],,,,1-4[16:2]/7,,2,,
{16}1/8-4[16:2],,7,,1/8,,2,,
{16},,7/8,,1-5b[16:2]/8<5b[16:2],,1/2,,
{16}8-4b[16:2]/1>4b[16:2]/E8f,,,,1-5b[16:2]/8<5b[16:2]/E2f,,,,
{16}8-4b[16:2]/1>4b[16:2]/E8f,,,,1p8b[16:4]/8<1b[16:4]/E2f,,,,
{16}1/8/E1f,,,,,,8x,,
{16}7/8-5[16:2],,1x,,1-4[16:2]/8,,2x,,
{16}1-6[16:2]/2,,,,8/1-4[16:2],,,,
{16}1-6[16:2]/2,,,,1/8,,,,
{16}4>1[16:2]/5,,3,,4/5<8[16:2],,6,,
{16}4/5,,,,1,,1-4[16:2],,
{16},,1/5-1[16:2],,6,,2-5[16:2]/5,,
{16}3,,2/8-4[16:2],,7,,1/8<1[16:6],,
{16},,,,,,,,
{16},,,,8/1,,8-5b[16:2]/1,,
{16},,8/4-8b[16:2],,3,,7-4b[16:2]/4,,
{16}6,,7/1-5b[16:2],,2,,8/1>8b[16:4],,
{16},,,,,,,,
{16}5x,4x,5x,4x,5x,4x,5x,4x,
{16}3bx/6bx-8[16:2],,,,3x-1[16:2]/6x,,,,
{16}3x/6x,,7xh[16:1],,,6,4,5,
{16}3,5,4,6,3,5,4,3/6,
{16},3,5,3,5,4X,6,4,
{16}6x<8[16:2],,,,3x>1[16:2]/6x,,,,
{16}3x/6x,,7xh[16:1],,,6/4,,5/3,
{16},5,4/6,,3,5,4,6,
{16},4,3/5,,3/6,,5,4,
{16}3x-1[16:2]/6x,,,,3x/6x-8[16:2],,,,
{16}3x/6x,,2xh[16:1],,,3,5,4,
{16}6,4,5h[16:2],,3,4,5,3/6,
{16},5,4,6,3,6,5,4,
{16}3x>1[16:2]/6x,,,,3x/6x<8[16:2],,,,
{16}3x/6x,,2xh[16:1],,,3/5,,4/6,
{16}5h[16:2],,4,3,4,5,6,4/5,
{16},3x>1[16:1],5x-2-7[16:4],4x,6x,,,,
{16},,,,,,,,
{16},,,,,,,,
