&title=キミとセミブルー
&artist=有村麻央,紫雲清夏,姫崎莉波/「学園アイドルマスター」より
&first=0.005
&des_5=Ragna
&lv_5=13
&des=Ragna
&wholebpm=151
&demo_seek=
&demo_len=
&inote_5=(151){1},{16}
B1/B2/B3/B4/B5/B6/B7/B8,,,5xs1[4:1]/3x,,,,,,,,,,,,,
B1/B2/B3/B4/B5/B6/B7/B8,,,4xV25[4:1]/6xV85[4:1],,,,,,,,,,,,,
1bh[4:1]/B7/B6/E6,,,,,,,,2bh[4:1]/A7/B7/E7/A6/E6,,,,,,,,
1b/B7/B6/E6,,,,2b/A7/B7/E7/A6/E6,,,,
3b/A7/B7/E7/B6/A6,,,,A1/E1/E8f/A7,,,,
2v3-5[4:1]/6,,,,24,,,,6h[16:3],,,5,7,,8,,
7v6-4[4:1]/3,,,,75,,,,3h[16:3],,,4,2,,1,,
2v3-5[4:1]/6,,,,24,,,,6h[16:3],,,5,7,,8,,
7h[4:1]/3,,,,A8/D1/A1,,,,26,,,34,,,75,,
2v5[8:1]b/8v5[8:1],,,,2b/8b,,,,6h[16:3],,,5,7,,84,,
3h[16:3],,,4,2,,15,,86,,,82,,,34,,
2^1-5[32:5]b/5,,,,2b/B7`C`B3,,,,8h[16:3],,,1,8,,7p4[8:3]/2,,
,,E5,,E4,,E3,,,,E8/E2/B8/B1/E1f,,,,,,
2x<6<3[4:3]/5x,,,,5,,,,5,,,,5,,4x,,
5s1[2:1],,,,2,,,,2,,,,2,,3x,,
4-1[8:3]/8,,,,8,,,,8,,7,,7,,4x/6xh[4:1],,
,,3,,3,,4/2h[4:1],,,,5,,5,,6x/4x,,
7x/3xpp1-3[4:3],,,,7,,,,7,,,,7,,6x,,
5v3>7[2:1],,,,4,,,,4,,,,4,,3x,,
2x^5[8:3]/6x,,,,6,,,,6,,7,,6,,7xh[4:1]/4x,,
,,2,,3,,2xh[4:1]/5x,,,,7,,3qq2[16:3]/6pp7[16:3],,45,,
C,,,,,,B5/B6/E6,,B1/B2/E2,,,B8/B7/E8,,,B3/B4/E4,,
6,,1,,8h[16:3],,3xV51[16:5]b,3x,,,5,,6,,7,,
8h[16:3],,2xqq7pp3[1:1],2x,,,,,,,6,,6,,6,,
6,,6,,6,,6,,,,E3/E4/B3,,E7/E6/B6,,A8/A1/E1,,
,,6h[16:5],,,,3x-6[8:1],3x,,,8h[4:1],,,,5,,
6,,4,,8h[16:3],,2x-4-1-5[8:3],2x,,,5,,6,,7,,
8h[4:1],,,,4,,E4/E8,E3/E7,E2h[8:3]/E6,,,,,,A8f/D8/E8,,
,,,,1^4[8:1]/5^8[8:1],,,,5pp7[8:1]*qq3[8:1]/1,,,,,,,,
A3/B3/E4/5x,,,A6/B6/E6/4xh[16:3],,,,,
A2/B2/E3/5x,,,A7/B7/E7/4xh[16:3],,,,,
A1/B1/E2/5x,,,A8/B8/E8/4xh[16:3],,,,,
3v2[8:1]/7v6[8:1],,,,,,,,
A7/B7/E8/1x,,,A2/B2/E2/8xh[16:3],,,,,
A6/B6/E7/1x,,,A3/B3/E3/8xh[16:3],,,,,
A5/B5/E6/1x,,,A4/B4/E4/8xh[16:3],,,,,
3-8[8:1]/7-4[8:1],,,,37,,,,
1x-5^2[32:7],,6,6h[16:3],,,,,8-4^7[32:7]b,,3,3h[16:3],,,,,
2x^5-1[32:7],,6,6h[16:3],,,,,7^4-8[32:7]b,,3,3h[16:3],,,,,
2x^7[8:1],,,,2x^5[8:1]/6,,,,2x-6[8:1]/5,,,,D7h[4:3]/A7h[4:3]/D8h[4:3]/2x,,,,
B3,,,C,,,B6,,{32}5x,4x,3x,2x,1x,8x,7x,6x,{8}8bx/5x,,
2v4[8:1]b/5-1[8:1],,5b/2b,,3-5[8:1],7pp3[16:5],3,7,
,1bx,1bx,24,35,64,7pp3[16:5],1,
7,,1bx,,24,3/5<4[16:5],46,5/7h[8:3],
,,,18,,2-6[8:1],7pp3[16:5],2,
7,,1bx,,24,25,26,2-7[8:1]/7,
,7-2[8:1],,2-7[8:1],,7-2[8:1],,2b-7-3-6[16:9]b,
,,5,,8,,7h[8:1],{32}5x,4x,3x,2x,1x,8x,7x,6x,{8}5x/8bx,8bx,,{16}34,,,75,,,28,,3v8[8:1]b/7-4[8:1],,,,3b/7b,,,,{8}
1xp4[8:1],,8xq5[8:1]*q5[8:1],,1xp4[8:1]b,,8bxq5[8:1],,
1xp4[8:1]*p4[8:1],,8xq5[8:1]b,,1xp4[8:1],,8bxq5[8:1]*q5[8:1],,
1xp4[8:1]b,,8xq5[8:1],,1xp4[8:1]*p4[8:1],,8xq5[8:1]b,,
1xp4[8:1],,8xq5[8:1]*q5[8:1],,1xw5[8:1]b,,1bx,,
3^8[8:1],8^5pp4^1[8:5]b,3,5h[8:3],,,,,
8h[4:1],,B2h[1:1],,7h[4:1],,,{16}B8,B7,
B6h[4:1],,,,,,,,
E2/E7/E1/E8/A1/A7/B1/B8/B7,,,3xh[16:3]/5xh[16:3],,,,,
E8/E3/E1/E2/A8/A2/B8/B1/B2,,,6xh[16:3]/4xh[16:3],,,,,
E2/E7/E1/E8/A1/A7/B1/B8/B7,,,3xh[16:3]/5xh[16:3],,,,,
2^7[8:1]b/6^3[8:1],,,,2^7-3^6[4:3]/6,,,,
,,,,,,,,,,,,,,,,
5-2[8:1]b*p1[8:1],,,,5b,,,,3h[16:3]/8,,,4,3,,25,,
6h[16:3]/1,,,5,6,,74,,3h[16:3]/8,,,4,3,,25,,
1>6[4:1]/6,,,,1/6<3qq5[4:3]b,,7,,
8b^6pp4[2:1],,,,,,,,
,,,,,,,,64,,,21,,,35,,
8-4[8:1]b/7v4[8:1],,,,8b/7b,,,,3h[16:3]/5,,,8,2,,73,,
6h[16:3]/4,,,1,7,,26,,35,,,78,,,64,,
12,,,,45,,6,5,7,,3,4h[16:3],,,1^4[8:1],,
8^5[8:1],,1-5[8:1],,8,,1,,8,,37,3h[16:3]/7h[16:3],,,,,
1x-5[201.333#8:1]/2x-6[201.333#8:1],,,A1/D2f/A2,,,,,
8x-4[201.333#8:1]/7x-3[201.333#8:1],8x/7x,,A8/D8f/A7,,,,,{12}
4x/5x,4x/5x,4x/5x,3xpp8[12:5]/6xqq1[12:5],3x/6x,3x/6x,3bx/6bx`B3/B6`Cf,{1},
E
