&title=Malicious Mischance
&artist=s-don
&first=0.068
&des=JDJDH vs Aza
&lv_5=14
&inote_5=(155)
{4}
,,,,
Ch[4:3],,,8-3[8:1]*-5[8:1],
8bq3b[8:2]*p5b[8:2],,
{16}
,,2x/6x,,,48,,,
{8}
17,8>6[8:2],1,8/2h[8:3],,,
{24}
7x,8,1,2,3,4,
{8}
5x/Chf[8:2],,E3/E7,,
{16}
1x/8x,,,24,,,57,,
{4}
1-5[8:1],1b/6-2[8:1],6b/8w4[8:1],8b,
2bh[8:1]/6bh[8:1],
(180)
3h[8:1]/7h[8:1],
(210)
4h[8:1]/8h[8:1],
(240)
5h[8:1]/1h[8:1],
(270)
2h[8:1]/6h[8:1],
(300)
3h[8:1]/7h[8:1],
(330)
4h[8:1]/8h[8:1],
(360)
1h[8:1],
(390)
2h[8:1],
(420)
3h[8:1],
(450)
4h[8:1],
(480)
5h[8:1],
(510)
6h[8:1],
(540)
7h[8:1],
(570)
8h[8:1],
(600)
{8}
1,2,3,4,5,6,7,8,
1,2,3,4,5,6,7,8,
1,2,3,4,5,6,7,8,
1,2,3,4,5s1[150#8:4]*-3-7-1b[150#8:4],6,7,8,
(155)
{32}
1,2,3,4,
{8}
,
{4}
,,Chf[12:4],,
(465)
,
(155)
{16}
1bx/8bx,,3,4,2h[8:1],,6,5,7h[8:1],,3<6[8:1],4,2,,7,,8,,7,1<6[8:1],8,2,,13,,,4,,
35,,6,4,7h[8:1],,3,5,2h[8:1],,4,3,8h[8:1],,
{32}
5x,4,3,2,
{16}
1-5[8:1]/7h[8:2],,,,1,,,,4b/8b,,,3b/5b-2-4[16:3]*-8-6[16:3],,,4b/6b,,,,,,
2bx/8bx,,6,5,7h[8:1],,3,4,2h[8:1],,6>3[8:1],5,7,,2,,1,,2,8z4[8:2],1,7,,8,,,,,
26,,3,5,2h[8:1],,6,4,7h[8:1],,5,6,
{32}
1,2,3,4,5h[8:2]/7b,,,,,,,,8,,,,
7,6,5,4,3h[8:2]/2b,,,,,,,,1,,,,
2,3,4,5,Ch[8:1],,,,,,,,,,,,
{16}
2b/7b,,,8x,
1,7,5,7,3,7,
1,7,2,7,4,7,
1,7,3,7,5,7,
2,7,4,7,3,7,
5,6,4,6,5,6,3,6,
1,6,5,6,3,6,
1,6,3,6,5x,5x,
(310)
{8}
6x,,8x,,
1b/7b,,,2b/4b,,,5b/6b,,
(155)
{16}
C,,,1x,
8,2,4,2,6,2,
8,2,7,2,5,2,
8,2,6,2,4,2,
7,2,5,2,6,2,
{32}
E5,E4,E3,E2,E1,E8,E7,E6,
{8}
1xh[8:1],3h[8:1],5h[8:1],7h[8:1],
{16}
1x,2x,3x,4x,
{32}
5x/8x,7,6,5,4,3,2,1,
{4}
8hb[4:3]/Ch[4:1],,4-8b[8:1],Cf,
||Aza||
{8}1-6[8:1]/5,2,1/4,3,2/4,{16}2,4,{8}3>8[8:1],7-3b[8:1],3,7,2-5[8:1],1,2/8,,{16}7,8,6,1,5-1[8:1],,2x,2b,5,,3bx,,4-8[8:1],,7x,7b,4,,6bx,,{8}2bx/5bx,3bx/4bx,2bx/5bx,7bx-5[8:1]/8bx-4[8:1],4bx-2[8:1]/5bx-1[8:1],7bx/8bx,,,
{8}4/8-3[8:1],7,8/6,7,5/6,{16}7,5,{8}6-1[8:1],2>5b[8:1],6,2,8-3[8:1]*-5[8:1],1/7,8b,,{16}2,4,3,5,4,,7-3[8:1],5,6,,8x/7x,,{32}1,2,3,4,5-8[8:1],6,7,8,{8}1-4b[8:1],5b,{4}1bq4[4:1]*p6[4:1],,,2xv5[8:1]/5x-8[8:1],2b/5b,
{16}4x/7x,,4x/7x,,6,5,7,4,6,5,7,4,7x,5,6,4,7,5,6,4,5x,2,4,3,5,2,4,3,4x,2,5,3,4,2,5,3,7x,4,5,4,8x-4b[8:1],5,6,5,{4}4bx/8bx<5b[8:1],1bx/8bx>3b[8:1],{16}8bx/6bx,,,7x,{8}4xqq1[2:1],6/5,8b/4,8,7,7,6,6,{32}E3,B2,C,B6,{8}E7,8-5b[4:1],8,1,1,2,2,{32}E7,E8,E1,E2,{8}E3,{16}3,4,3,4,2,5,2,5,1V35b[8:1],6,1,6h[16:3],{4}1,{16}7b/8b,,,1hb[8:1]/6b,,,1b/2b,,{8}3b/8b,{32}8x,7x,6x,5x,{4}4bx-7[8:1]/8bx-3[8:1],
{16}4b>6-8v1-3b[4:13]/8b<3-1v8-6[4:13],Cf,
||JD||
,,,,,,
{1}
,,,{2},
{8}
3h[8:4],4,5,6,6h[8:4],5,4,3,
3h[8:4],5,4,5,6h[8:4],4,5,4,
3,4,5,6,6,5,4,3,
{16}
2b/7b,,3,5,4,4,6,6,1,1,8,8,1v3[8:1]*v7[8:1],,,,
{4}
1bz5b[8:2]*s5b[8:2],,
{16}
,,7x/3x,,,51,,,
{8}
82,4<2[8:2],5,4/6h[8:3],,,
{24}
3x,4,5,6,7,8,
{8}
1x/5h[8:2],,B1/E1/E2,,
{16}
46,,,25,,,7h[8:2],,
{8}
1,8-4[8:1],7,8-6-2-4b[8:2]/6h[8:4],,,,,
{32}
8s4[16:4]*z4[16:4],7,6,5,4,3,2,1,
{8}
8b,,,
{16}
2b/6b,,,4b/8b,,,
{64}
A6,D6,A5,D5,A4,D4,A3,D3,
{8}
A2,8,1s5[8:2]/7z3[8:2],,,,,Ch[8:1],
{32}
8,1,2,3,
{16}
4b,,,,2b/4b,,,5b/7b,,,1b/8b,,
{4}
7/2>6[8:2],6<2[8:2],2,6h[8:2],
{24}
4,3,2,1,8,7,6/4hx[8:2],,,,,,
6,7,8,1,2,3,4/6hx[8:2],,,,,,
{48}
A4,D4,A3,D3,A2,D2,A1,D1,A8,D8,A7,D7,A6/4hx[8:2],,,,,,,,,,,,
A6,D7,A7,D8,A8,D1,A1,D2,A2,D3,A3,D4,A4/6hx[8:2],,,,,,,,,,,,
{8}
4h[8:2],5,6h[8:2],7,2h[8:2],3,8h[8:2],1,3h[8:2],B2/E3,6h[8:2],B5/E5,C/E1f,,,,
{16}
3h[8:1]/4h[8:1],,,4h[8:1]/5h[8:1],,,5h[8:1]/6h[8:1],,,4h[8:1]/5h[8:1],,,
3h[8:1]/4h[8:1],,,2h[8:1]/5h[8:1],,,4h[8:1]/7h[8:1],,,1h[8:1]/6h[8:1],,,
3h[8:1]/8h[8:1],,,2h[8:1]/7h[8:1],,,1/8,,
3,6,4,5,3,6,4,5,2,7,3,6,1,8,2,7,
{32}
1,2,3,4,5,6,7,8,
1,2,3,4,5,6,7,8,
A1/D2,A2/D3,A3/D4,A4/D5,A5/D6,A6/D7,A7/D8,A8/D1,
{64}
A1,D2,A2,D3,A3,D4,A4,D5,A5,D6,A6,D7,A7,D8,A8,D1,
{4}
1xh[1:1]/Ch[4:3],,,,
||Aza||
{2}5-1[4:1],{4}5-1b[8:1],{16}8,7,6,5,
{8}4/2bq6[8:1],1,2/7<4b[8:1],8,1/7,{16}1,2,{8}3-8[8:1],5-1b[8:1],3,5,{16}2-6b[8:1],3,{8}4/8,1b/2,,{16}7,8,7,8,1x-5[8:1]/6,2,3x,4b,1,,2bx,,8x-4[8:1],1,2x,3b,{8}8,1bx,7bx/8b,2b/4bx,7bx/5b,1bxv3[8:1]/8bv6[8:1],3b>2-5[8:1]/6bx<7-4[8:1],{4}1b/8b,
{8},1/7p3[8:1],8,2>5b[8:1]/7,1,2/8,{16}8,7,{8}6-1[8:1],4-8b[8:1],6,4,{16}7-3[8:1],6,{8}5/1,8b/7,,{16}2,1,2,1,3/8x,,4/5-1[8:1],4b/5,,,5bx/6,,7,,2-6[8:1]/8,2/8b,,,2bx/6,,{32}7,8,1,2,3,4,5,6,7,8,1,2,3,4,5,6,{2}7bxq5[8:1]/1bxp3[8:1],
{8}1/2,{16}3,4,2,5,1,8,5-1[8:1],6,4,7,5,8,{32}8,7,6,5,{16}4/3,,B2,B5/B6,,,{8}B1/B8,E1/E3,E8/E4,{32}E7,B6,B5,,{8}C,1/8,{16}7,8,6,1,5,2,8-4[8:1],1,7,2,{8}8,3,{8}2/5>6[8:5],,,,4p5b[8:1],4,,,3/4,{16}3,4,2,5,1,6,{8}7-3[8:1]/8,1-5b[8:1],7b,1b,8h[8:1],{16}4,7,5,6,8,7,{8}1-5[8:1],2-6b[8:1],1b,2b,8<5[8:1],{16}7,4,8,,3,2,1/4v1[8:1]*v7[8:1],,B5,B3,4,,2,,{2}3x/5x-1[4:1],{8}5-1b[8:1],,{16}8,7,6,5,4/3,,3,2b/4x,,6,5b/7x,,1x/8x,,7/8,6b/8x,,1/2,1b/3x,,{4}4x-1[8:1]/8x-5[8:1],4x-7[8:1]/8x-3[8:1],4x>1[8:1]/8x<5[8:1],4xq8[8:1]/8xq4[8:1],{16}4b>8q6[4:3]/8b<4q2[4:3],Cf/B1/B2/B3/B4/B5/B6/B7/B8,
