&title=Kowloon of the Kijoh
&artist=t+pazolite
&first=-0.01
&des=N.S.R
&des_5=N.S.R
&lv_5=14
&inote_5=(175){4},{16},,,,,,,,,,,,8,
1,8,1,8,1,8,1,8,1,8,1,8,1,8,1,
{4}8b-4[8:1],8b/1b-5[8:1],1b/3b-7[8:1],3b/4bh[8:1],
{8}4/E8,5/E1,{4}6/E2,{8},8/E4,1/E5,2/E6,
,6h[8:1],5-3[8:1],6h[8:1],5-2[8:1],6h[8:1],{4}5,
{8}5/E2,4/E1,{4}3/E8,{8},1/E6,8/E5,7/E4,
,3h[8:1],4-6[8:1],3h[8:1],4-7[8:1],3h[8:1],{4}4,
{8}6/E8,6/E1,{4}6/E2,{8},2/E4,2/E5,2/E6,
,6h[8:1],5-3[8:1],6h[8:1],5-2[8:1],6h[8:1],{4}5,
1h[8:1]/6h[8:1],7h[8:1]/2h[8:1],3h[8:1]/8h[8:1],{8}4h[8:1]/1-6[8:1],1,
{4}1v3>1v3-1[2:1],1b/7v5-7[4:1],{2}7v5-8[4:1]b,
{8}E2,E1,{4}E8,{8},E6,E5,E4,
,3h[8:1],4-6[8:1],3h[8:1],4-7[8:1],3h[8:1],{4}4,
{8}E8,E1,{4}E2,{8},E4,E5,E6,
,6h[8:1],5-3[8:1],6h[8:1],5-2[8:1],6h[8:1],{4}5,
{8}7,7,1,1,2,2,4,4,
5,5,7,7,1h[8:3],3,4,5,
(350){4}1-3[8:1],1-5[8:1],1-7[8:1],1-4[8:1],
1-6[8:1],1-5[8:1],1,1,
(175){16}1,6,2,7,3,8,4,5,6,7,8,1/5,6/2,7/3,8/4,5/1,
{1}2pp1[4:15]/6pp5[4:15],
,,,{16},,,{48},A3,
E4,B4,E5,B5,E6,{3}A6,{6},,,,,,,,,,,,,,,,,{2}Cf,
(87.5){8}7qq8[4:1],{16}1,1,7,1,2,3,{32}4qq5[4:1],,,8,{8}8h[16:1],{4}4,
{8}A8/D8/E8,E3/D3/A2,A5/E6/D6,C,{4}A7f,A2f,
{8}2pp1[4:1],{16}8,8,2,8,7,6,{32}5pp4[4:1],,,1,{8}1h[16:1],{4}5,
{8}A1/D2/E2,E7/D7/A7,A4/E4/D4,C,{4}A2f,A7f,
{8}7qq8[4:1],{16}1,1,7,1,2,3,{32}4qq5[4:1],,,8,{8}8h[16:1],4,{16}6,6,
{8}6h[8:1],{16}3,5,2,{64}E5,B5,B6,E7,{16}1,7,3,{64}6,5,{32}6,{16}C,E6,{8}E3,Cf,
2pp1[4:1],{16}8,8,2,8,7,6,{32}5pp4[4:1],,,1,{8}1h[16:1],5,{16}3,3,
{8}3h[8:1],{16}6,4,7,{64}E5,B4,B3,E3,{16}8,2,6,{64}3,4,{32}3,{16}5,2,{8}7-4[16:1],Cf,
(175){4}7b/8b,{8}2h[8:1],4h[8:1],5h[8:1],7h[8:1],8h[8:1],1h[8:1],
{16}2h[8:3],,,3,{8}3-6[8:1]*-8[8:1],3,{4}3,{8}7,1,
{4}8-5[8:1],4h[8:1]/8-3[8:1],4h[8:1]/8p6[4:1],4h[8:1],
{8}4,{16}4,5,{8}4b,6b,{4}2b-5[8:1],2,
4h[2:1],{8}7-5[8:1],8,7,{16}3,4,{4}3-5[8:1],
{16}3,,,7,{8}7h[8:1],8h[8:1],{4}1V73[4:1],{8}1/2-5[8:1],2,
{4}2,6h[4:1],{8}4,{16}5,4,{8}5,Chf[8:9],
,,,,,,,,{4}7V53>2[4:1],
2V46<7[4:1],7-5>4-2[4:1],2-4<5-7[4:1],
{8},,2b,1b,{4}8b,{8}6b,6b,
{4}3V17<6[4:1],6V82>3[4:1],3-1<8-6[4:1],6-8>1-3[4:1],
{8}E4,E5,E6,E7,{4}E8,4h[8:1]/5-7[8:1],
{8}4/5,4,4/7-5[8:1],4,4/7,4,4-2[8:1],4,
5/4,5-7[8:1],5,5/2,2-4[8:1],2,2/7,7,
{16}7,4,5,4,7,4,5,4,7,4,5,4,7,4,5,4,
{4}C,{8}E7,E3,E5,E1,{4}C,
{8}3b,6,5/6,6,2b,7b,4b,1b,
2b,5,4/5,5,3b,3b,8b,8b,
8b,3,4/3,3,7b,2b,5b,8b,
7b,{16}3,4,3,4,{8}3,2,{16}6,5,6,5,{8}6,
7,4,8,3,7,7pp5[4:1],2,2/7,
,2,2,4,4pp6[4:1],5,{4}5/4,
{8},8,6,4,7,1,5,2,
{32}E4f,B4,{16}B5,{32},,,,E7f,B7,{16}B8,{32},,,,E3f,B2,{16}B1,,,{4}8-4[8:1],
Cf,{8}2/1,2,2/4,2-5[8:1],2/7,2,
,7/8,7,7/5,7-4[8:1],7/2,{4}7,
{8}2/1,2,2/4,2,2/7,2,2/1,7/8,
7,{16}7,5,{8}7,{16}7,4,{8}7,{16}4,6,3,5,2,4,
{32}1/E5,B5,B6,E7,,,,,{8}7-5[8:1]b,7b,{32}7b/E8,B8,B1,E2,,,,,{8}2-4[8:1]b,2b,
{32}2b/E1,B8,B7,E7,,,,,{8}5qq3[4:1]b,5b,5b/3qq1[4:1]b,4x,{32}E5,B5,B6,E7,,,,,{16}5,
4,5,2,5,4,5,2,5,4,5,2,5,4,5,2,
{8}C,E3,E7,E5,E1,E6,{4}C/8w4[8:1],
8b,{8}2h[8:1],4,2h[8:1],4,2h[8:1],4,
{16}7b,,,6,{8}5h[8:1],6h[8:1],{4}5h[4:1],{8}6,6,
2b/6h[1:1],2b,2b,2b,2b,2b,2b,2b,
2b,5/4,{16}3,4,{8}3,{16}6,5,{8}6,{16}4,5,3,6,
{4}2h[4:1],{8}7h[8:1],5,7h[8:1],5,7h[8:1],5,
{16}2b,,,3,{8}4<6[4:1],3h[8:1],{4}4b,{8}3,3,
7b/3h[1:1],7b,7b,7b,7b,7b,7b,7b,
7b,4/5,{16}6,5,{8}6,{16}3,4,{8}3,{16}5,4,6,3,
{32}E7,B7,B8,E1,,,,,{8}3h[8:1],1,3h[8:1],1,3h[8:1],1,
{16}6b,,,7,{8}8h[8:1],7h[8:1],{4}8h[4:1],{8}7,7,
3b/7h[1:1],3b,3b,3b,3b,3b,3b,3b,
3b,8/1,{16}2,1,{8}2,{16}7,8,{8}7,{16}1,8,2,7,
{4}3h[4:1],{8}6h[8:1],8,6h[8:1],8,6h[8:1],8,
{16}3b,,,2,{8}1<7[4:1],2h[8:1],{4}1b,{8}2,2,
{4}7-4[8:1],7b/1v8V24[4:1],1,Ch[4:1],
{8},1,1,1,1,1,{4}1b/5w1[8:1],
5b,{8}4q5[4:1],4,{4}4/5,{8}8,8,
5-2-4[4:1],6,{4}5p4[4:1],5,{32}E2,B1,B8,E8,,,,,{4}4/8,
{8}5/4,6/3,{16}7,8,7,8,7,8,{8}7,
6p5[4:1],5,{4}6-8[8:1],{8}6,E4/A3,{4}E2/A2,
4/2-5[8:1],6/2-7[8:1],2/4,{8}6/8,6/8,
{16}7,,,5,{8}4h[8:1],5h[8:1],{4}4,{8}7b-5[8:1],8,
{4}7,{8}7,1,{16}8,1,{8}2,{16}4,5,{8}6,
{16}3,4,3,6,3,4,3,6,3p8[4:1],4,3,6,{4}3,
Cf,{8}5p4[4:1],5,{4}5/4,{8}1,1,
4-7-5[4:1],3,{4}4q5[4:1],4,{32}E8,B8,B1,E2,,,,,{4}5/1,
{8}4/5,3/6,{16}2,1,2,1,2,1,{8}2,
3q4[4:1],4,{4}3-1[8:1],{8}3,E6/A6,{4}E8/A7,
5/7-4[8:1],3/7-2[8:1],7/5,{8}3/1,3/1,
{16}2,,,4,{8}5h[8:1],4h[8:1],{4}5,{8}2b-4[8:1],1,
{4}2,{8}2,8,{16}1,8,{8}7,{16}5,4,{8}3,
{16}6,5,6,3,6,5,6,3,6,5,6,3,{4}6,
{8}5/E2,4/E1,{4}3/E8,{8},1/E6,8/E5,7/E4,
,3h[8:1],4-6[8:1],3h[8:1],4-7[8:1],3h[8:1],{4}4,
{8}4/E8,5/E1,{4}6/E2,{8},8/E4,1/E5,2/E6,
,6h[8:1],5-3[8:1],6h[8:1],5-2[8:1],6h[8:1],{4}5,
{8}3/E2,3/E1,{4}3/E8,{8},7/E6,7/E5,7/E4,
,3h[8:1],4-6[8:1],3h[8:1],4-7[8:1],3h[8:1],{4}4,
8h[8:1]/3h[8:1],2h[8:1]/7h[8:1],6h[8:1]/1h[8:1],{8}5h[8:1]/8-3[8:1],8,
{4}8v6<8v6-8[2:1],8b/2v4-2[4:1],{2}2v4-1[4:1]b,
{8}E8,E1,{4}E2,{8},E4,E5,E6,
,6h[8:1],5-3[8:1],6h[8:1],5-2[8:1],6h[8:1],{4}5,
{8}E2,E1,{4}E8,{8},E6,E5,E4,
,3h[8:1],4-6[8:1],3h[8:1],4-7[8:1],3h[8:1],{4}4,
{8}2,2,8,8,7,7,5,5,
4,4,2,2,8h[8:3],6,5,4,
(350){4}8-6[8:1],8-4[8:1],8-2[8:1],8-5[8:1],
8-3[8:1],8-4[8:1],8,8,
(175){16}8,3,7,2,6,1,5,4,3,2,1,8/4,3/7,2/6,1/5,4/8,
{1}7qq8[4:13]/3qq4[4:13],
{4},,,,,,,,,,,,C,
{8}E4,E6,{16}E3,B2,B1,E1,E7,B6,B5,E5,
{8}C,{32}A7,D7,A6,D6,{8}A5,C,{4}A1/D2,{8}A8/E8,A3/E4,
{1}Ch[1:1],
{4},,,,7V13[4:1],
3<7[4:1],7>3[4:1],3V57[4:1],
7V13[4:1],3<7[4:1],7>3[4:1],{8}3,5,
{4}7h[8:1],5/7h[8:1],4/7h[8:1],3/7h[8:1],
2/7h[8:1],1/7h[8:1],8/7h[8:1],Cf,
{8}2h[8:1],3h[8:1],2h[8:1],4h[8:1],2h[8:1],5h[8:1],2h[8:1],6h[8:1],
2h[8:1],7h[8:1],2h[8:1],8h[8:1],2h[8:1],1h[8:1],2,2,
{16}2b,3,4,5,6,7,8,1,5,4,3,2,1/5,8/4,7/3,6/2,
{4}1V36[4:1]/5V72[4:1],5/1,{8},C,{4}5w1[8:1],
5b,{8}3h[8:1],1,3h[8:1],1,3h[8:1],1,
{16}6b,,,7,{8}8h[8:1],7h[8:1],{4}8h[4:1],{8}7,7,
3b/7h[1:1],3b,3b,3b,3b,3b,3b,3b,
3b,8/1,{16}2,1,{8}2,{16}7,8,{8}7,{16}1,8,2,7,
{4}3h[4:1],{8}6h[8:1],8,6h[8:1],8,6h[8:1],8,
{16}3b,,,2,{8}1<7[4:1],2h[8:1],{4}1b,{8}2,2,
6b/2h[1:1],6b,6b,6b,6b,6b,6b,6b,
6b,1/8,{16}7,8,{8}7,{16}2,1,{8}2,{16}8,1,7,2,
{32}E7,B6,B5,E5,,,,,{8}2h[8:1],4,2h[8:1],4,2h[8:1],4,
{16}7b,,,6,{8}5h[8:1],6h[8:1],{4}5h[4:1],{8}6,6,
2b/6h[1:1],2b,2b,2b,2b,2b,2b,2b,
2b,5/4,{16}3,4,{8}3,{16}6,5,{8}6,{16}4,5,3,6,
{4}2h[4:1],{8}7h[8:1],5,7h[8:1],5,7h[8:1],5,
{16}2b,,,3,{8}4<6[4:1],3h[8:1],{4}4b,{8}3,3,
{4}6-1[8:1],6b/4v5V31[4:1],4,Ch[4:1],
{8},4,4,4,4,4,{4}4b/8w4[8:1],
8b,{8}1p8[4:1],1,{4}1/8,{8}5,5,
8-3-1[4:1],7,{4}8q1[4:1],8,{32}E4,B4,B5,E6,,,,,{4}1/5,
{8}8/1,7/2,{16}6,5,{8}6,{16}3,4,{8}3,
7q8[4:1],8,{4}7-5[8:1],{8}7,E2/A2,{4}E4/A3,
1/3-8[8:1],7/3-6[8:1],3/1,{8}7/5,7/5,
{16}6,,,8,{8}1h[8:1],8h[8:1],{4}1,{8}6b-8[8:1],5,
{4}6,{8}6,4,{16}5,4,{8}3,{16}1,8,{8}7,
{16}2,1,2,7,2,1,2,7,2q5[4:1],1,2,7,{4}2,
Cf,{8}8q1[4:1],8,{4}8/1,{8}4,4,
1-6-8[4:1],2,{4}1p8[4:1],1,{32}E6,B5,B4,E4,,,,,{4}8/4,
{8}1/8,2/7,{16}3,4,{8}3,{16}6,5,{8}6,
2p1[4:1],1,{4}2-4[8:1],{8}2,E8/A7,{4}E6/A6,
8/6-1[8:1],2/6-3[8:1],6/8,{8}2/4,2/4,
{16}3,,,1,{8}8h[8:1],1h[8:1],{4}8,{8}3b-1[8:1],4,
{4}3,{8}3,5,{16}4,5,{8}6,{16}8,1,{8}2,
{16}7,8,7,2,7,8,7,2,7-5[16:1]b,8,7,2,{4}7,
{8}3h[8:1],4,5/3h[8:1],4,5/3h[8:1],4-6<7[8:1]b,5/3h[8:1],4,
3h[8:1],8,3h[8:1],8,3h[8:1],8,3h[8:1]/C,8,
3h[8:1],8,3h[8:1],8,3h[8:1],8,3h[8:1],8,
{16}3,4,{8}5,{16}8,7,{8}6,2b,{16}3,2,4,3,5,4,
{8}6h[8:1],5,4/6h[8:1],5,4/6h[8:1],5-3>2[8:1]b,4/6h[8:1],5,
6h[8:1],1,6h[8:1],1,6h[8:1],1,6h[8:1]/C,1,
6h[8:1],1,6h[8:1],1,6h[8:1],1,6h[8:1],1,
{16}6,5,{8}4,{16}1,2,{8}3,7b,{16}6,7,5,6,4,5,
{4}Cf,{8}4/6v4[4:1],4/6,6/4V68[4:1],{32},,,,,,,,E3,B2,B1,E1,
,,,,{8}E7,C,E3,5/3,5/3,4/6,4/6,
{32}E1/E8,B1/B7,B2/B6,E3/E6,,,,,{8}5/3v5[4:1],5/3,{2}3/5V31[4:1],
{8}5,6/3,4,6/3,5,6/3,{16}4,5,4,5,
{32}E3/E2,B3/B1,B4/B8,E5/E8,,,,,{8}7/5,5/7,{32}E7/E8,B6/B8,B5/B1,E5/E2,,,,,{8}2/4,4/2,
{32}1b/E5,B5,B6,E7,{8}3b,5b,4b/6b,5b,2b,{4}8b,
{16}5,4,5,4,5,4,5,4,5,4,5,4,5,4,5,4,
{8}5b,2b,7b,3b,8b,5b,{4}Cf,
E
