&title=ANOVA
&artist=cybermiso
&first=0.1
&des=fade
&lv_5=14+
&des_5=fade
&inote_5=(182)
{4},,,,,,,{16}1x,28,37,46,
{16}5>6pp5[16:56],,,,
,,,,
,,,,
,,,,
{16},,,,
,,,,
,,,,
,,,,
{16}2h,,,,
,,,,
,,,,
,,,,
{16}1h,,,,
,,,,
,,,,
8x,1,2,3,
{16}4>5[16:20],,,,
,,,,
,,,,
,,,,
{16}4h,,,,
,,,,
,,,,
,,,,
{16}2h[16:4],,,,
4qq5[16:8],,,,
,,,,
,,,,
{16}8>4b[4:1]*q6[4:1],,,,
,,,,
,,,,
7,5,7,5,
{16}6h[16:16],,,,
E6,,,,
C,,,,
E2,,,,
{16}1,,,,
1,,,,
1,,,,
28,,3b,4b,
{16}2bh[16:16],,,,
E4,,,,
C,,,,
E8,,,,
{16}8,,,,
8,,,,
8,,,,
71,,6,5,
{16}7,,8,,
12,,3,,
46,,8,,
57,,46,,
{16}3,,24,,
6,,57,,
3,,15,,
26,,37,,
{16}8h[16:4]/4b,,,,
5x,7,4,6,
2x,4,3,5,
,18,2/7,3/6,
{16}4b<8[16:4]/5b>1[16:4],,,,
,,,,
,,,,
2x,6x,3x,5x,
{16}4q7[4:5]*-1[4:2],,,,
,,,,
,,,,
,,,,
{16},,,,
,,,,
,,,,
,,,,
{16}2-6[16:8],,,,
,,,,
,,,,
,,,,
{16}7h[16:3],,,8h[16:3],
,,1h,,
2-6[16:2]/6-2[16:2],,,,
,,,,
{16}3h[16:4]/5,,E7,E6,
E5,,2h,,
5h[16:4]/3,,E1,E2,
E3,,7h,,
{16}4h[16:4]/6,,E1,E8,
E7,,3h,,
6h[16:4]/4,,E2,E3,
E4,,8h,,
{16}6x,5,7,4,
8,3,1,2,
4x,3,5,2,
6,1,7,8,
{16}6bx<8-2>4-6qq1[16:10],,,,
,,,,
,,,,
,,,,
{16}2>5[16:2],,,,
6-2[16:2],,,,
7h[16:4],,,,
1,,1h[16:6],,
{16},,,,
8,,1>4[16:2]/7,,
2,,5,,
6,,7,,
{16}8<5[16:2],,,,
4-8[16:2],,,3h[16:5],
,,,,
1>4[16:2],,,7h[16:5],
{16},,,,
5pp2[16:6],,,,
8<4[16:2],,,,
,,,,
{32}D1f,E1,C,E5,,,,,
{16}5x<8[16:2],,,4xh[16:5],
,,,,
1h[16:2],,3>5[16:4],,
{16}8<5[16:2],,,,
4x>6b[16:4],,4xh[16:4],,
,,,,
5b,,,,
{16}43,,2s6[16:4],1,
2-5[16:2],,,,
,,,,
73,,3/7q1[16:6],,
{16},,,,
1>5[16:4],,,,
5<1[16:4],,,,
1,,,,
{16}2h[16:4],,,,
8<5[16:2],,72,,
1h[16:4],,,,
4h[16:2],,2>8[16:4],,
{16}5<8[16:2],,,,
1x>6b[16:4],,1xh[16:4],,
,,,,
7b,,,,
{16}1x>4[16:2]/8x,,,,
5-1[16:2],,,6h[16:5],
,,,,
8<5[16:2],,,2h[16:5],
{16},,,,
4qq7[16:6],,,,
1>5[16:2],,,,
,,,,
{16}8,,,,
8,,,,
57,,6,,
54,,3,,
{16}2/1h,,,,
1x/2,,,,
42,,3,,
45,,6,,
{16}87,,87,,
21,,21,,
3,4,2,5,
1-5b[16:2],6,8,7,
{16}1bv3[8:1]*v7[8:1],,,,
,,,,
1b/5b,,,,
,,,,
{16}7<4[16:2],,,,
3-7[16:2],,,2h[16:5],
,,,,
8>3[16:2],,,4h[16:5],
{16},,,,
5-2b[16:2],,,6h[16:3]/5-8[16:2],
,,,,
,,,,
{16}1>4[16:2],,,,
{24}5/1-5b[16:2],6,7,8,,,
{16}1<6[16:2],,,,
{24}41,3,2,,,,
{16},,6/1-5[16:2],,
78,,,,
{24}6,,7,,8,,
41,,3,,2,,
{16}8<5[16:2]/1,,,,
{24}4-8[16:2],,3,,2,,
{16}1,,,,
{24}1<6[16:2],,2,,3,,
{16}4,,,,
{24}5-8b[16:2]/4,,3,,2,,
{16}1-4[16:2],,,,
,,,,
{16}7h[16:2],,5,6,
,2,4,3,
5h[16:6],,,,
6,7,8,1,
{16}2-6b[16:2],,,,
2b/8,,,1V74[16:3]/5V38[16:3],
,,,,
,,,,
{16}2>5[16:2],,,,
6-2[16:2],,,7h[16:5],
,,,,
1<6[16:2],,,5h[16:5],
{16},,,,
{24}3,,4,,3,,
7,,5,,6,,
1,,4,,3,,
{16}8<5[16:2],,,,
{24}4/8-4b[16:2],3,2,1,,,
{16}8>3[16:2],,,,
{24}58,6,7,,,,
{16},,3/8-4[16:2],,
21,,,,
{24}3,,2,,1,,
78,,6,,5,,
{16}34,,2h[16:2],,
5h[16:2],,3,4,
1h[16:2],,8h[16:2],,
4,7,3,6,
{16}2>6b[16:2],,,,
12,,7<3b[16:2],,
,,87,,
1h[16:6],,,,
{16}4b,5,6,7,
3b,4,5,6,
2b,3,4,5,
{32}1bxz5[16:8],2x,3x,4x,5xs1[16:6],6x,7x,8x,
{16},,,,
,,,,
,,,,
6<4[16:56],,4>6[16:54],,
{16}5b,,,,
,,,,
,,,,
,,,,
{16},,,,
,,,,
,,,,
,,,,
{16},,,,
,,,,
,,,,
,,,,
{16},,,,
,,,,
,,,,
,,,,
{16}5x-7-1-3<4qq5b[16:36],,,,
,,,,
,,,,
,,,,
{16}C,,,,
,,,,
,,,,
,,,,
{16}C,,,,
,,,,
,,,,
,,,,
{16}Cf/6>7[16:8],,,,
,,,,
,,,,
,,,,
{16}3xh[16:8],,,,
A4,,B4,,
5xh[16:8],,,,
A3,,B3,,
{16}2xh[16:8],,,,
A5,,B5,,
6xh[16:4],,,,
A2,,B2,,
{16}1xh[16:8],,,,
A6,,B6,,
7xh[16:8],,,,
A1,,B1,,
{16}2xh[16:4],,,,
8<2[16:6],,7,,
6h[16:4],,,,
,,,,
{16}7b/1b,,6,,
56,,3,,
24,,7,,
68,,5,,
{16}4b/3b,,2,,
28,,6,,
17,,3,,
56,,7,,
{16}34,,25,,
16,,87,,
6,5,7,4,
8q1[16:8],3,1>8[16:6],2,
{16},,,,
,,,,
,,,,
,,,,
{16}5pp2[4:5]*<4[4:5],,,,
,,,,
,,,,
,,,,
{16},,,,
,,,,
,,,,
,,,,
{16}1-5[16:8],,,,
,,,,
,,,,
,,,,
{16}7-3[16:8],,,,
,,,,
,,,,
A1f/B1,,,,
{16}4/2h[16:2],,8,7,
6,,5/3h,,
4/7h[16:2],,1,2,
3,,4/6h,,
{16}5/2h[16:2],,7,6,
5,,4/3h,,
5/6h[16:2],,2,3,
4,,5/6h,,
{16}3,4,2,5,
1,6,8,7,
{32}1,2,3,4,5,6,7,8,
1,2,3pp2[16:11],4,5,6,7,8,
{16}1bqq6b[16:8]/3b,,,,
,,,,
,,,,
,,,,
{16}5<8[16:2],,,,
2>5[16:2],,,,
1,,8-3[16:2],,
7,,8bx/6bpp5[16:4],,
{16},,2bx,,
2bxh[16:4],,,,
4,,3-7[16:2],,
2,,3x/1pp6[16:4],,
{16},,5x,,
5xh[16:4],,,,
8,,1>4[16:2]/7<4[16:2],,
,,7>1[16:2]/1,,
{16},,,,
2bh[16:6],,,,
3-1[16:2],4,5-7[16:2],,
,,,,
{16}1xh[16:2],,7,6,
5,,34,,
2,1,3h[16:2],,
{24}8,1,2,3,4,5,
{16}6h[16:3],,,4,
5,,3h[16:3]/4,,
,8,1,,
57,,46,,
{16}35,,2,4,
2h[16:2],,8,1,
,,6,5,
7h[16:3],,1,8,
{16}2>6[16:2],,,,
12,,7<3[16:2],,
,,87,,
1h[16:6],,,,
{24}2bx-6b[16:2],3b,4b,5b,6b,7b,
{16}8b,,,,
5,,4-7[16:2],,
3,,4bx/2bpp1[16:4],,
{16},,6bx,,
6bxh[16:4],,,,
8,,7-3[16:2],,
6,,7x/5pp2[16:4],,
{16},,1x,,
1xh[16:4],,,,
4,,5<8[16:2]/3>8[16:2],,
,,3<5[16:2]/5,,
{16},,,,
6bh[16:6],,,,
7v5[16:2],8,1v3[16:2],,
,,,,
{16}6h[16:2],,3,2,
1,,78,,
6,5,7h[16:2],,
{24}4,5,6,7,8,1,
{16}2h[16:3],,,4,
3,,2h[16:3]/1,,
,7,8,,
46,,35,,
{16}2>5[16:2]/4,,1,8,
2,,7h[16:2],,
6,7,8,1,
5/2,6/3,47,58,
{16}1bs5b[4:1]*v2-4[4:1],,,,
,,,,
,,,,
Chf[111:1],,,,
{16}6<1[16:2],,54,,
{24}2-6[16:2],3,4,5xh[16:2],,,
{16},,5x>2[16:2],,
7h[16:7],,,,
{16},,,1x,
1xh[16:2],,,6,
8<1[16:4],7,1,8h[16:3],
{24}A7,A6,A5,A4f,A3,A2,
{16}A1,,7,8,
6,,4V68[16:4],5,
3qq4[16:4],,24,,
3,,,,
{16},,5xpp4[16:4],,
{24}8x,2x/7x,6x/3x,5x/4x>6[16:4],,,
{16},,,,
A1/B1f,,,,
||{12}E1,B1,B2,E7,B7,B8,E5,B5,B6,E3,B3,B4,
{16}3/5-1[16:2],,4/6h[16:2],,
5,,8,7,
{24}6,,,2,4,3,
5,,,84,7,6,
{16}3-7[16:2]/5,,4/2h[16:2],,
3,,1,2,
3,,57,,
46,,35,,
{16}2,1,3,8,
4,6,5,7,
8,6,1,7,
4,6,3,5,
{16}2>6[16:2],,1,8,
2,,7<8[16:4],,
8,1,7,,
2xh[16:4],,,,
{32}7bx,6x,5x,4x,3x,2x,1x,8x,
3bxpp6[16:6]/7x,6x,5x,4x,3x,2x,1x,8x,
{16}A3f,,7xh[16:4],,
,,,,
{32}8bx,1x,2x,3x,4x,5x,6x,7x,
4bxqq5[16:6]/8x,1x,2x,3x,4x,5x,6x,7x,
{16}A4f,,8xh[16:4],,
,,,,
{16}47,,2,1,
3,,5V31[16:4],4,
6pp5[16:4],,75,,
6,,,,
{16},,4xqq5[16:4],,
{24}1x,7x/2x,3x/6x,4x/5x<3[16:4],,,
{16},,,,
A8/B8f,,,,
{16}5/6,,7,,
6/5<8[16:2],,4,,
{24}1/5,2,3,4>1[16:2],,,
{16},,7,6,
{16}5bx,,1x,,
24,,7,,
64,,53,,
42,,31,,
{16}78,,56,,
34,,12,,
8,1,7,2,
5,4,6,3,
{32}7b,8,1,2,3,4,5,6,
7b,8,1,2,3,4,5,6,
{16}3b,,,,
{24}3-7[16:2]/7-3[16:2],62,51,48,,,
{16}3bx/7bx<6-4-2<1p7[16:56],,,,
