&title=Bable
&artist=Nizikawa feat. nayuta
&first=0.675
&des=bms发汗苦手
&des_5=bms发汗苦手
&lv_5=14
&inote_5=(175){1},
,
{1}4qq8[2:3]/8qq4[2:3],
,1-4[4:3]/5-8[4:3],
{8},,,,2,3,7,6,
{1}5h[2:1]/1v6[4:1],
{8}8h[2:1]/7-4[4:1],,,,,1,2,5,
{1}6h[2:1]/3>6[4:3],
5w1[4:1],
{8}7/3h[2:1],6,{4}5,{8}5h[2:1],4,{4}3,
{8}3-8[8:1],4,5,6,{2}7-4[8:1]/1-6[8:1],
{8}3h[8:1],5h[8:1],4h[8:1],6h[8:1],8h[8:1],5h[8:1],1h[8:1],4bw8[4:1],
,,,,2/6,2,5/3,5,
4h[2:1]/5-2[4:1],,,,,1x-6[8:1]/5x-2[8:1],,1/5<4[8:5],
,,,,,B7,B6,E6,
5xh[4:3]/4xh[4:3],,,,,,,Cf,
{16},,,,,,,,1-5[8:1],8,2,7,{4}1,
{8}3b/7b,7-2[8:1],,4,{4}4-8[8:1],4/7-5[8:1],
1-3[8:1],8-4[8:1],{16},,,,3,2,1/5,6,
{4}7-2[8:1],{8}3,3-6[8:1],,5-1[8:1],,4-2[8:1],
,6-8[8:1],{16},,,,,,2x,1x,{8}2x,{16}3,4,
{8}3-8[8:1],5,6,7,3-8[8:1],5,6,7,
{4}3>6[4:1],6/3,{16},,4,5,{8}4,6/3,
7-4[8:1],1,2,3,7-4[8:1],1,2,3,
{4}7-4[8:1]/8-3[8:1],8/7,{24}1x,2x,3x,4x/5x,6x,7x,{4}8xh[4:1],
1b-5[4:1],B7/E7,B7/E7,8b<5[2:1],
E4/B4,E4/B4,E4/B4,2-7[8:1]/6-3[8:1],
E6/B6/E2/B2,C/E5,C/E6,C/E7,
C/E8,1x/C,2x/C,3x/C,
{8}4x/C,4x,3x/C,3x,2x/C,2x,{4}C/1x-5[8:1],
{8}8/C,8,7/4x,7,6/3x,6,{4}4-8[8:1]/5-1[8:1],
5/4,{16}2,3,{8}4h[8:1],{4}8b,{16}7x,6x,{8}5xh[8:1],
1b,2/6,7/3,8/4,{16}5/1,6,7,8,1,2,3,4,
{24}1/5h[4:3],E1,E8,E7,E6,E5,E4,E3,E2,E1,E8,E7,E6,E5,E4,E3,E2,E1,E8/B5,C,B1,A1f,,,,,,,,,,,,,,,{2}Cfh[2:1],
{4},,,2q6[8:1],
1,{8}8q4[8:1],7h[8:3],,,,,{4}6h[2:1]/5<3[8:3],
,,4x/5-1[8:1],
{8}5x,4,3,2h[8:3]/8V25[4:1],,,,,6h[2:1]/8>3[4:1],
,,,,4/5-7[8:1],3,2,
1-5[8:1],8,7,6h[8:3],,,{4}4x-8[8:1],
4/5-7[8:1],5/3-1[8:1],3/4-8[8:1],5/4pp8[2:1],
{8}1/4,2,3,4xh[8:3],{24},,,,,,1w5[8:1],3x/8x,{6}2x/7x,
{4}1bx,3/C,2/C,1h[4:1]/C,
8,{8}C/B2,8,C/B2,7,C/B2,6,
3/5,3,4/2,2,1/7,7,6/2,6,
{16}3,5,3,5,{8}2/6,{16}3x,3x,{4}5xh[4:1],{16}8,1x,2x,3x,
{1}6h[4:3]/4xqq1[2:1],
{4}3h[4:3]/7qq4[2:1],,,A4f,
{8}4x/3x,5/1,,6/5,{2}4/8-4[8:1],
6/2z6[4:1],Ch[2:1],
{8}4,4,5/3,5/3,6/2,6/2,{4}1/7h[4:1],
{16}1,8,1,8,2,7,2,7,3,6,3,6,4,5,4,5,
{4}6/3,{24}3,4,5,6,7,8,{4}5/1bxh[4:1],{24}6,5,4,3,2,1,
{2}8bxh[2:1]/A4f,{16}1x,2x,3x,4x,5x,6x,7x,8x,
{1}Ch[4:7]/1x>8[2:3],
{8},,,,,,,,2/5,
{16}3,4,3,4,,,{8}4/7,{24}6,5,6,{8}5,4/7,
{16}2,8,3,7,4,6,8,5,1,4,2,8,3,7,4,6,
5,3,5,2,4,2,5,3,5,2,4,2,5,3,5,3,
4,3h[16:3],1x,8x,7x,6x,5x/8x,1,2,3,{32}4/8,7,6,5,4,3,2,1,{8}8b,
7x/3x,7x/3x,6/2,6/2,5/1,5/1,{16}2,6,1,5,
{4}2qq6[8:3]/6qq2[8:3],{24},,,,,,,,,,,,7x-2[8:1]/3x-6[8:1],6x/2x,{6}5x/1x,
{4}3bx/7bx,{8}1x-4[8:1],8,1/7-2[8:1],6,{4}7/5-8[8:1],
{24}5/1,2,3,4,,,{8}4-7[8:1],3,4/2-5[8:1],1,{4}2/8-3[8:1],
{24}8/7,6,5,4,,,{8}2x-4[8:1],4x-6[8:1],6-8[8:1],8-2[8:1],{4}4xh[4:1],
{32}E3,E4,E5,E6,E7,E8,E1,E2,{4}2bx/6bx,{16}7x/3x,6,5,4,1,2,3,4,
{8}5/8-3[8:1],7,{4}8/6-1[8:1],6/4-8[8:1],{24}4/7,6,{6}5,
{8}1x-6[8:1],2,{4}1/3-8[8:1],3/5-1[8:1],{24}5/2,3,{6}4,
{8}8/5,6,2/4,3h[4:1]/Cf,,8<1[8:3],,,,,{4}Ch[2:1],
5w1[8:1],{8}B5,B8/B1/B2,
3b/7b,{24}6,5,6,{8}5,4,{16}3h[8:1],4,,5,4h[8:1],,,6,
{4}8h[8:1],{16}6,8,5,1,4,2,8,3,7,4,6,5,
{4}7/4,{32}8,7,6,5,4,3,2,1,{16}8b/4b-8[8:1],,,6b,,,{8}5bx,
1V35[8:1],5V71[8:1],,,{4}Cf,{16}E8/B8,B2,B6,E4/B4,
{4}Cf/5x<8[4:1],{8}1x,2x,3x,4x,{24}5x,6,7,8,1,2,
{4}7bx/3bx>8b[4:1],{8}7b,6b,5b,4b,{24}3b,2b,1b,8b,7b,6b,
{8}5b/1bx,3,4/8,6,{24}5/1,2,3,4/1,8,7,{32}2/6-2[8:1],3,4,5,6,7,8,1,
{4}6b/2b,1bxh[4:1],{16}8b-4b[8:1],1,7,2,{4}8,
{1}Cfh[32:1],
E
