&title=ドリーマーズビート
&artist=日野森志歩×花里みのり×白石杏×天馬司×鏡音リン×鏡音レン
&first=-0.07
&des_1=fuwan
&des_2=fuwan
&des_3=fuwan
&des_4=fuwan
&des_5=fuwan
&lv_5=13
&des_6=fuwan
&des_7=fuwan
&des=fuwan
&inote_5=(134){4},{16},,,,,,,,6,4,5,3,
,,,,6,4,5,3,,,{8}5x/2x,{16}3,4,3,4,
{4}3>8[8:1],3/5-1[8:1],3b/5b,{16}7,1,8,C,
,,,,7,1,8,C,,,{8},5/4,{16}3,4,
{4}5/2>5[8:1],2/8-4[8:1],8b/2hx[1:1],5,
5,5,5,{8}4/6,{16}7,5,
8<5[8:1],,,3,,,{8}1,{4}4/2b-8-4[4:1],6<4[4:1],
{16},,,,,,2,4,3,5,4,4,{8}6h[8:1],{16}E5,E4,
{8}E3,{16}5,4,5,3,4,3,{4}6-2V85[2:1],4x,
3x,2-5b-8b-3b[2:1],5,6,
Ch[8:1],{16}2,4,,5x/3x,,,{8}B6/B2,{16}7,1,,8x/2x,
,,{8}B7/B3,{16}4,6,,7/5,,,{8}8/1,4/2,{16}3/5,5/3bqq4[16:5],
,,,,,,,,{4}5,{8}6-4[8:1],6,
{4}3,2>5[8:1],5,{8}6<1[8:1],4,
{4}3h[4:1],4-7[8:1]*-1[8:1],4,{8}2x,3,
{4}4h[4:1],{8}1x,8,{4}7<4[8:1],4/7,
3>8[8:1],3x/5x,{8}4/6,5,4/2,3,
1/8,8/1,2,7,{16}3,4,{8}3,5/4,6,
5/4,3,4b/2b-6[8:1],5,{4}2b/6b,{16}B8,B2,B6,B4h[16:3],
,,,,B8,B2,B6,B4h[16:3],,,,,6,5,{8}7h[8:3],
{4}8-4[8:1],8V25[8:1],8bx/6b,{16}E8,E4,E7,E5h[16:3],
,,,,E6,E2,E5,E3h[16:3],,,,,{8}4,{16}3,5,
{4}4V68b[8:1]*-7[8:1],4b>8[8:1],4b/6bx,{16}7,5,6,4hx[16:5],
,,,,7,5,6,4hx[16:5],,,,,{4}E6h[4:3]/E5h[4:3]/B5h[4:3],
{32}B7,B8,B1,B2,,,,,E8,E1,E2,E3,,,,,A8,A1,A2,A3,,,,,{16}E3,E5,E4,E6h[16:3],
,,,,E3,E5,E4,E6,,,,,{4}3/5h[4:3],
{32}8,1,2,3,,,,,8,1,2,3,,,,,8b,1,2,3,4,5,6,7,{16}8x/E7,E6,E5,E4,
,,,,A7,A6,A5,A4h[16:5],,,,,{4}Cf,
4/8-4[8:1],8w4[8:1],{8}8b,,,3hx[2:1],
{16}5,,,6,,,{8}7<4[8:1],,,,3,
{16}2/4,,,1/3,,,{8}2/8,7-4[8:1],7,3-8[8:1],3,
5,5-8[8:1],2,5x/2x-5[8:1],,6,{4}6h[4:1],
{16}1,2,3,4,{4}5/6b-8[8:1]*-2b[8:1],6bx,{8}3,5,
{16}4,5,{8}4,6/3,3/6,2b-5[8:1],1,2/7b-4[8:1],8,
4/7,3,2x>5[8:1],1,2/8bp4[8:1],7,8/3b-7[8:1],2,
5bx/3bx,6,8,{16}5,5,2,4,{8}3,5/4,6bx/3bx,
{16}7,5,{8}6,{16},6/4,,,{8}3b/7b-4[8:1],8,7/2b-6[8:1],3,
{16}7,7,{8}8,5,3/4,5/2b-5[8:1],1,2/8bp4[8:1],7,
{16}3,3,{8}2,1/7,2/6,5-1[8:1],3-7[8:1],5x,3x,
8x<5[8:1],8x,1>4[8:1],1,6,{16}5,5,{8}3,4,
{4}3/5bpp5[4:1],5xqq5[4:1],{8},2,1hx[4:1],6,
,7,8hx[4:1],2-5[8:1]*-6[8:1],,2,,7/4,
,3/8,{4}1b/2h[4:1],{16}7,6,5,4,1,2,3,4,
7,7,5,5,3,3,,1,{2}1b/4b<3[4:1],
{4}4-7b[8:1]*-1b[8:1],4b,{8}2/6,5/3,{16}4,6,3,5,
{8}2,3,4/2,4,6/4,8,1/2,{16}4,3,
{8}7xV53[8:1],4,3,2,1b-5[8:1],4,{16}1/5,7,{8}7,
8b-4[8:1],3,{16}2/8,1,{8}1,5-7[8:1],4,3-5[8:1],2,
1-5[8:1],6,1bx/8-4[8:1],7,{4}8bx/Cf,{16}5,4,5,3/C,
,,,,7,1,7,8/C,,,2,4,{4}3h[4:1],
1bx-7[8:1],1bx-5b[8:1]*-3b[8:1],1b,{16}7,4,6,5/6,
,,,,2,5,3,4/3,,,{8}5/2,{16}6,1,7,8x,
{4}E7/B6/B7/2>5[8:1],5/2s6b[8:1],{2}2b/8b,
E
