&title=神
&artist=DJ Myosuke vs MASAKI
&first=0
&des=DJ FakewithR vs FALSE_WITHER
&lv_5=14+
&des_5=DJ FakewithR vs FALSE_WITHER
&inote_5=
(190){4},{8},,,,,,3,
3,6,6,{16}3,4,{8}3,2,2,
7,7,2,2,{16}6,5,{8}6,7,7,
3,6,2,7,{16}1,8,1,8,1,8,1,8,
{8}2/7,{24}2,3,4,{8}5/6,7/2,{24}7,6,5,4/3,,,{4}7/2,
1bw5b[8:1],{64}1b,Cf,,,,,,,,,,,,,,,{8}7xh[8:3],6,5,4,
{4}3-8[8:1]/7-4[8:1],3/7,{8}1xh[8:3],8,7,6,
{4}5-8[8:1]/1v4[8:1],1/5,{16}3,7,{8}3,8/4,8/4,
{4}5-2[8:1]/1-6[8:1],1/5,{2}4bw8[8:1],
{8}6,6/5,3,3/4,{16}5,5,{8}5,1/8,7/2,
3,2/4,6,7/5,{16}4,4,{8}4,1/8,7/2,
3,1/4,6,7/5,{16}1-5[8:1]/8-4[8:1],7/2,{8}3/6,{4}1b/8b,
8-4[8:5],8,8-4b[8:1],8b,
{8}2b/7b<4[8:1],8,7/3-8[8:1],2,{16}3,4,,6,{8}5,4/3,
7/1b-5[8:1],2,1/7-3[8:1],6,{16}7,4,,4,{8}5,6/3,
7/2b-6[8:1],1,2/7-1[8:1],8,{16}7,5,,2,{8}4,7/2-5[8:1],
1,2/7-3[8:1],8,7/3,4,{16}4,5,{8}4,6x/3x,
6b/2b-6[8:1],1,2/7<4[8:1],8,1/7,{16}1,8,7,6,{8}5,
{16}1,8,1,8,1,8,1,8,2,7,1,8,2,7,1,8,
{8}2b/7b,{24}3,4,3,4,2,,{8}2b,{24}6,5,6,5,{12}7,7b,{24},2,1,2,
1,3,,{8}3b,{24}7,8,7,8,{12}6,{4}6b,1w5[8:1]*-5[8:1],
{48}1>8b[2:3],Cf,{1},{4},,,{16},,,{48},{1}7qq8[2:3]/3qq4[2:3],
{4},,,,E7,
C,E3,{8}2,7,
{16}1,2,3,4,8,7,6,5,3,4,3,4,2h,5h,2h,5h,
3,4,{24}2,5,2,{8}5,3/4,,6/1,,1/8,
{16}2,7,3,7,4,7,5,7,6,7,8,7,{4}1h[8:1],
{32}1x-5[8:1],2,3,4,5,6,7,8,{48}1b,Cf,,,,,,,,,,,{16}3,4,{8}3,2/5,2/5,
2/7-3[8:1],8,7/2-6[8:1],1,{16}2,8,{8}8,4,4,
{32}8-4[8:1],7,6,5,4,3,2,1,{48}8b,Cf,,,,,,,,,,,{16}6,5,{8}6,7/4,7/4,
3-1[8:1]/8-4[8:1],3/8,,,5-7[8:1]/8-4[8:1],5/8,,,{4}8b,
{16}4,6,3,5,2h[16:3],,,4,2,5,3,6,
{8}4,{16}5,5,{8}5,4,6,{16}4h,4h,4h,4h,{8}4h,
,1b-5[8:1],{16},8b-3[8:1],,,2b-5[8:1],,,7b-4[8:1],,,,8b-3[8:1],
,,{8}6b-1[8:1],{16},4b-7[8:1],,,,2b,,,1,8,1,8,
{4}1b,{16}2,5,3,6,4,7h[16:3],,,5,7,{8}5,
{16}4,4,6,6,3,3,5,5,2,2,8,8,{4}1w5[8:1],
{64}1b,Cf,{4},{16},,,{32},{8}7>2[16:3],1>4[16:3],3<6[16:3],5<8[16:3],
,B3/B2,C,B7/B6,,E1/B8/B1/B5/B4/E5/C/B7/B6/E7/E3/B3/B2,,,2<7[16:3],
8<5[16:3],6>3[16:3],4>1[16:3],,E8,E7,E6,
{2}Ch[2:1],1bw5[8:1],
{16}3,4,{8}3,{16}6,5,{8}6,{16}3,4,{8}2,{16}6,5,{8}7,
{16}3,3,{8}4,{16}6,6,{8}5,{16}2,2,{8}4,{4}3b,
{24}1,8,1,8,1,8,1,8,1,8,1,8,{48}2,3,4,5,6,7,8,1,{3}2,
{1}1bh[4:3]/8bh[4:3],
{4}2b/7b,{8}1,8,{16}2,4,,7,{8}5,6,
{4}3,1/8,{16}1,8,1,8,1,8,,,{8}5/6h[8:1],
8,6/5h[8:1],8,5/6h[8:1],8,6/5h[8:1],8,
3/4h[8:1],1,4/3h[8:1],1,3/4h[8:1],1,4/3h[8:1],1,
6/5,4,6/5,7,6/5,5/4,3/4,2,
3/4,5,3/4,{16}3,5,1,6,4,8,{8}3,2b/7b,
{4}1b-5[8:1]/8b-4[8:1],8b/1b>4[8:1],{8}1b/7b-4[8:1],8,7b/2b-6[8:1],1b,
{2}6b<1[8:1]/2b>5[8:1],{8}2b/8b,3b/4b,1b/7b,5b/6b,
{4}1b-3[8:1]/8b-6[8:1],8b-4[8:1]/1b-5[8:1],1b/8b,{16}1b,1b,1b,1b,
{1}1bV72-6-3-5[2:1],
{16}3,4,{8}2,{16}6,5,{8}7,{16}3,4,{8}1,{16}6,5,{8}8,
{16}3,5,{8}1,{16}6,4,{8}8,{16}3,5,{8}1,6,6,
{16}4,5,{8}4,{16}6,5,{8}6,{16}3,5,{8}3,{16}7,5,{8}7,
{16}3,3,{8}5,{16}6,6,{8}4,{16}2,2,{8}5,{16}7,7,{8}4,
1>4[8:1],4,4,C,8<5[8:1],5,5,C,
3,4/2,6,7/5,{16}1,1,1,1,1,1,1,1,
{2}1bh[2:1],{32}E1,E2,E3,E4,E5,E6,E7,E8,{8}E1,C,
{16}2,1,,3,{8}4,{16}6,5,,7,{8}8,1-5[8:1],1,
{4}1b,7/3,{16}2,4,,7,{8}5<8[8:1]*>2[8:1],5,
{4}5,1,{16}2,1,,5,{8}6,4,
{24}3h[24:5],,,,,2h[24:5],,,,,{12}1h[8:1],,8h[6:1],{24},,{8}7h[8:1],6h[8:1],
{4}5,{16}3,4,3,4,{4}2/5,{16}6,5,6,5,
{4}7/4,7b/1b-5[8:1],{16}1b/7b-3[16:1],,,7b/2b-6[16:1],,,{8}2b/8b-4[16:1],
{16},8b/1b-5[16:1],,,{8}1b/7b,7b,{16}6,5,4/3,2,{8}1,1,
{24}6,5,6,5,{12}6,7/4,{48},,,,,,,,{16}2,1,,3,{8}4,2/7-4[8:1],
8,7/2-5[8:1],1,2/7,{16}6,6,,4,{8}5,5,
{24}3,4,3,4,{12}3,2/5,{48},,,,,,,,{16}3,6,,4,5,4,5,4,
{8}3-1[8:1]/6-8[8:1],5/4,{4}3/6,{16}3,4,,6,5,8,1,8,
{8}1b,{24}6,5,4,{8}3,1b/8b,{24}3,4,5,6,,,{8}1b/8b,{24}3,4,3,
4,3,4,3b,,,6,5,6,5,6,5,{8}6b,7/4,{16}3,6,3,6,
{12}3,7h,5,1h,3,5h,1,7h,3,5h,3,7h,
1,7,5,6,2,4,3,8,6,7b,{24},,,,{8}1b/8b,
{24}2,3,4,{8}5/6,8b/1b,{24}7,6,5,4/3,{48},,,,{16}2b,1,3,8,
2,1,3b,8,4,7,5,6,5,6b,4,7,5,6,4,7,
{12}5b/6b,2h,4,8h,6,4h,8,2h,6,4h,6,2h,
8,2,4,3,7,5,6,1,3,2b,,,{1}8bqq4[2:1]/4bqq8[2:1],
2bqq5[2:1]/7bpp4[2:1],
3bqq4[2:1]/6bpp5[2:1],
4bz8[2:1]/5bs1[2:1],
{8}3,3,6,6,4,4,5,5,
6/4h[8:1],6,3/5h[8:1],3,6/4h[8:1],6,3/5h[8:1],3,
4/2h[8:1],4,5/7h[8:1],5,3/1h[8:1],3,6/8h[8:1],6,
1,1,8,8,{16}2,7,4,5,1,8,3,6,
{1}1b-5[2.2105##0.1579],
{4},1-5b[0.6316##0.1579],{64},,,,,,,,,,,,,,,,1b,Cf,,,,,,,,,,,,,,,{16}1/8-4[8:1],
2/7,{8}6/3,8/2-6[8:1],3,2/7-4[8:1],8,1/7,{16}1,2-6[8:1],
3,,,2/5,,,4,4<7[8:1]*>1[8:1],4,,,4x,,,{8}8,
{16}8/1-5[8:1],2/7,{8}3/6,1/7-3[8:1],8,7/2>5[8:1],1,2/7,{16}6,6-1[8:1]*-3[8:1],
6,,,6x,,,2,2-7[8:1]*-5[8:1],2,,,2x,,,{8}6b,
{16}5/4-8[8:1],3/6,{8}7/2,4/6-2[8:1],7,6/1>4[8:1],1,{16}8,7,6,5,
2b,,,6/3,,,4/5,4-1[8:1]/5-8[8:1],5/4,,,4/5,,,2/7,6/3,
{8}4/5,{16}3,4,3b,4,2,5,4b,5,1,6,5b,6,3b,5b,
{24}1b-5[16:1],,,,,7-3[16:1],,,,,{12}2-6[16:1],{24},8-4[16:1],,,,3,,,,{8}3,
7b<4[8:1],7,2/7,2,{24}3,5,3,5,3,5,{8}3,{16}1,1,
{32}8b,7,6,5,,,1b,2,3,4,,,7b,6,5,4,2b,3,4,5,,,8b,7,6,5,,,1b,2,3,4,
{8}7b<4[8:1],8,7/1-5[8:1],2,{16}1/8-4[8:1],7,{8}6,8/3,{16}1,1,
{32}8b,7,6,5,,,2b,3,4,5,,,8b,7,6,5,1b,2,3,4,,,7b,6,5,4,,,2b,3,4,5,
{16}8b-4[16:1],,,8b/2b-6[16:1],,,{8}2b,{16},7b,,,{8}1bs5[8:1]/8bz4[8:1],2b/7b,
{16}8b/1b,,,3b-7[16:1],,,{8}6b-1[16:1],{16},4b,,4,5-8[8:1],4,{8}5,
3b,{16}2,1,,3,{8}4,{16}6,5,,7,{32}2,3,4/5,6,7,8,,,{16}4,
5,3,6,2,7,1,8,2,7,3,6,{4}Cf,
{24}3,4,3,4,{12}3,2x/5x,{24},6,5,6,5,6,,{8}4x/7x,{24}2,1,2,1,{12}2,
{8}3x/8x,{24}7,8,7,8,7,,{8}6x/1x,{4}1x-4[8:1]/5x-8[8:1],1b/5b,
{24}2,4,2,4,{12}2,1/5,{24},6,8,6,8,6,,{8}1/5,{24}3,4,2,5,{12}3,
{8}3,{24}6,5,7,4,6,,{8}6,{4}8-5[8:1]/4-1[8:1],4b/8b,
{24}3,4,3,4,{12}3,6x/1x,{24},7,8,7,8,7,,{8}5x/2x,{24}1,8,1,8,{12}1,
{8}6x/3x,{24}4,5,4,5,4,,{8}7x/2x,{4}2x-5[8:1]/1x-6[8:1],1/2,
{32}1,2,3,4,8,7,6,5,{8}4b/3b,{32}8,7,6,5,1,2,3,4,{8}5b/6b,{32}1,2,3,4,8,7,6,5,
{8}3b/4b,{32}8,7,6,5,1,2,3,4,{8}6b/5b,{4}8xw4[8:1],{64}8b<1[1:2],Cf,,,,,,,,,,,,,,,{1}8b,
E
