&title=Sthenno
&artist=BlackY
&first=0.081
&des=albertoBradish
&lv_5=14
&des_5=albertoBradish
&inote_5=
(185){4},{8},,,,,,,,,,,,,,2bxh[2:1]/5xh[2:1],
,,,,3/4,,7h[4:1]/5h[8:1],
,5,{4}6/4xV62[4:1],{8},,,8,
7bxh[2:1]/4h[2:1],,,,,6/5,,2h[4:1]/4h[8:1],
,4,{4}3/5,{8}6/4,3/5,{16}5,4,5,4,
{8}6bx/3,6,6/1,6,6/7x,6,6/5,7x/4,
2/8,2x,2x/5,2,2/3,2,2/1,3/8,
{16}5x,6,5,6,4,7,4,7,3x,8,3,8,2,1,2,1,
{8}8bx-6[8:1]/2bx-4[8:1],6bx-2-5[4:1]/4bx-8-5[4:1],,,,,{4}1-5[8:1],
1x/7`Cf,6,5,4,
4h[8:1]/2h[8:1],5h[8:1]/2h[8:1],3h[8:1]/6h[8:1],4h[8:1]/7h[8:1],
8/2,3,4,5,
5h[8:1]/7h[8:1],4h[8:1]/7h[8:1],6h[8:1]/3h[8:1],5h[8:1]/2h[8:1],
{8}1/7,6,{4}3/5h[8:1],{8}2,3,4/6,7,
8,4,7,3,6,2,5,1,
2/4,3,{4}6/4h[8:1],{8}7,6,5/3,2,
1,5,2,6,5b/6b,4b/3b,,,2/4,
{16}3,4,{8}2,5/2,1h[8:1],5,6,7h[8:1],
3,2,1h[8:1],8,7,6,5/2,3,
7/5,{16}6,5,{8}7,4/7,8h[8:1],4,3,2h[8:1],
6,7,8h[8:1],1,2,3,6/4,7,
8<5[8:1],1,2,3>8[8:1],4,5,6,6,
7-4[8:1],8,2-5[8:1],1,6x,7x,{4}7xh[8:1],
{16}8x,7,8,7,1x,6,1,6,2x,5,2,5,3x,4,3x,4,
{24}5x,6x,7x,8x,1x,2x,3x,4x,5x,6x,7x,8x,{4}1x/5x-1[8:1],5b/3,
{8}2b-4[8:1],1x,5-1[8:1],6,{4}5-7[8:1],{8}5/2,{16}2,3,
{8}4>1[8:1],5,6,7<4[8:1],8x,1,2,2,
{4}3-8[8:1],{8}3/4,5<8[8:1],,1/5-3[8:1],,5x/7xqq1[2:1],
,,,,2,2,3,3,
4-2[8:1],5,4,7,1x-5[8:1],6,1,{16}8,7,
{8}6<1[8:1],5x,4,3,2>5[8:1],1x,8,7,
6-8[8:1],8-4[8:1],2,3-1[8:1],,3,6x,5/8,
1b,2/4,5,6,{16}7bh[8:1]/1bh[8:1],,,8bh[8:1]/2bh[8:1],,,{8}1b/3b,
{4}5-1[8:1]/4-8[8:1],5b/4b`Cf,{8}2x,3x,4x/7,{16}7,6,
{8}5<8[8:1],4,3,2>5[8:1],1,8,7,7,
{4}6b-1[8:1],{8}6/5,4>1[8:1],,8/4,7,6,
5/8,7bx/2bx,1/3,6/4,{32}2x,1,8,7,6,5,4,3,{4}2bx/6x-1[8:1],
{8}6b/1,2,3/4,5,6/8,1,2/5,{16}7/8,1/6,
{4}2/5,{8}4/3,2/6,1/8,7/5,8/1,2/4,
{16}2b,8,2,8,4,6,4,6,2,1,3,8,4,7,5,6,
{32}4x,3,2x,1x,8x,7x,6x,5x,4x,3x,2x,1x,8x,7x,6x,5x,4x,3x,2x,1x,8x,7x,6x,5x,4x,3x,2x,1x,8x,7x,6x,5x,
{1}4b/8bx,
,,{16}4,
5,4,5,4,5,4,5,4,5,4,5,4,5,4,5,
{1}6h[4:3]/2bV48[2:1],
3h[4:3]/1-4-6[2:1],
7h[4:3]/8-5-2[2:1],
2h[4:3]/8p6[2:1],
5h[4:3]/6V82[8:3],
4h[4:3]/3V17[8:3],
7h[4:3]/6>2[2:1],
2h[4:3]/3V58[2:1],
{4}1/E7,2/E7,3/E7,4/E7,
8/E3,7/E3,6/E3,5/E3,
3/E1,2/E8,1/E7,8/E6,
6/E1,7/E2,8/E3,1/E4,
{8}3x/4x,3,{16}6,5,{8}7,6,6,4,4,
6/5,6,{16}3,4,{8}2,3,3,5,5,
{16}4,6,4,6,3,7,3,7,2,8,2,8,1,2,3,4,
{8}5bx/8b,2b/7b,{16}8x,1,7x,2,6x,3,5x,4,{4}8xw4[8:1],
8b`Cf,4x,4,4,
4,4,4,{8}4,4,
{4}5x/3x,6/4,5/2,4/7,
{8}5,4,{16}5h[16:3],,,4,{4}7-4[8:1],7b/3-8[8:1],
{8}3b,7,{16}7/1,6,{8}5,2,2,{16}2/8,3,{8}4,
{16}8,7,{8}6h[8:1],{16}2,3,{8}4h[8:1],{16}7,6,{8}5h[8:1],{16}1,2,{8}3h[8:1],
{16}4,5,6,7,8/1,2,3,4,{32}5x/8,7,6,5,4,3,2,1,8x,7,6,5,4,3,2,1,
{4}8z4[2:1],8x/Ch[2:1],{16},,,,,,,,2b,
4,,4,{8}5,{16}5,7,{8}8-4[8:1],1,8/2,3,
{16}3,1,,1,{8}8,{16}8,6,{8}5<8[8:1],4,5/3,{16}2,2,
{8}1,{16}7,5,{8}6,{16}2,4,{8}3,{16}7,8,{8}6/1,2/5,
{16}3,4,3,4,1,5,1,5,2,7,3,8,{8}4,{16}8,7,
{8}6/2-5[8:1],3,2/6-1[8:1],7,6-4[8:1],3,3/6,{16}1,2,
{8}3/7-4[8:1],6,7/3-8[8:1],2,3-5[8:1],6,6/3,{16}7,8,
{8}1<6[8:1],5,1-5[8:1],3,1-3[8:1],7,1,{16}5x,5x,
{8}4,{16}6,5,{8}7/4,{16}3,4,{8}2/5,{16}7/8,6/1,{8}5/2,1/8,
{16}7b-5[8:1],4,,4,{8}7-3[8:1],{16}3,2,{8}7/1-5[8:1],2,1/8,7,
{16}6-8[8:1],1,,1,{8}6-2[8:1],{16}2,3,{8}6/4-8[8:1],3,4/5,6,
{32}1bx/7h[4:1],2,3,4,,,,,,,,,8b/2h[4:1],7,6,5,,,,,,,,,1b/8b,2/7,3/6,4/5,,,,,{16}7bx-4[16:1],
,,3bx-8[16:1],,,{8}6bx-3[16:1],{16},2bx-7[16:1],,,{8}4x,4x,
{4}Cf,{8}1-5[8:1],2,1/6-8[8:1],7,6,{16}1,2,
{4}3-1[8:1],{8}3/4,5,6-1[8:1],7,6/5,{16}4,3,
2b,1,2,1,2,1,2,1,3,8,3,8,3,8,3,8,
5,6,5,6,1,8,1,8,2b/B5f/E6/B6,,,7bx/B4f/E4/B3,,,{8}1bx,
{4}8-6[8:1],{8}8-4[8:1],{16}1,2,{8}3/8-6[8:1],2,8/1-3[8:1],2,
{4}1-5[8:1],{8}1-3[8:1],{16}8,7,{8}6/1-5[8:1],6,1/8,{16}8,7,
{8}6<1[8:1],{16}5,5,{8}6,4,3>8[8:1],{16}4,4,{8}3,5,
{16}7,8,7,8,6,1,6,1,{8}5-1[8:1],3/4,{4}5/2,
{16}2,8,2,8,{8}1-5[8:1],7,1-3[8:1],4,1,6,
{16}7,1,7,1,{8}8-4[8:1],2,8-6[8:1],5,8,{16}3,2,
{8}1,{16}6,5,{8}7,{16}3,4,2,5,1,6,{8}8,8/7,
{24}1/8xh[8:1],2,3,4,{12}5,{24}8/1xh[8:1],7,6,5,{12}4,{16}8-4[8:1],1,2,3,{4}4/8b,
Cf/1b-3b[8:1],{8}1-5[8:1],{16}8,7,{8}6/1-3b[8:1],7,1/8-6[8:1],7,
{4}8-4b[8:1],{8}8-6[8:1],{16}1,2,{8}3/8-4[8:1],3,8/1,1,
{24}2b,3,4,5,6,7,8,1,2,3/7b,6,5,4,3,2,1,8,7,{8}6/2b,8/4,
{16}6b-1b[16:1],,,6x/4b-7b[16:1],,,{8}4x/8b-3b[16:1],{16},8x/5x,,,{8}1x,8x,
{16}7b,5,6b,4,{8}5b,5,6/2,6,8/4,8,
{16}2b,4,3b,5,{8}4b,4,3/7,3,2/5,2/7,
{16}1b,2,8,3,7,4,6,5,8b,1,7,2,6,3,5,4,
{32}8,7,6,5,4,3,2,1,8,7,6,5,4,3,2,1,8,7,6,5,4,3,2,1,8,7,6,5,4,3,2,1,
{8}8b/4b,,,,,5/7,,4h[8:1]/5h[4:1],
,,{4}4V68[4:1]/2v5[4:1],{16},,,,,,1x,2x,
{8}3V57[4:1],,,,,4/2,,5h[8:1]/4h[4:1],
,,5/7,6,5/4,3,{16}1,8,1,8,
{8}2x/7x,3,4,7,6,5/4,3,2/1,
8,7/1,2/6,3,5,5,3,3,
7/2,6,5,2,3,4,6,7/1h[8:1],
,1/3h[8:1],{16},3/5h[8:1],,,{4}7-3[8:1]/5>1[8:1],7/5,
Cf,{8}7/5,6,6/4,4,5,6/1,
2,3/7,8,1,5-3[8:1],5,7-5[8:1],7,
{4}Cf,{8}2/4,3,3/5,5,4,3/8,
7,6/2,1,8,8/4-6[8:1],4,{16}8,1,2,3,
{8}4/7,7/4,6/5,6/5,3/4,3/4,2/5,5/2,
6/8,1/7,8/2,3/1,3/1,8/2,1/7,6/8,
{16}2,5,3,4,1,6,3,4,1,8,5,6,{32}4,3,2,1,8,7,6,5,
{8}4b/8b,2b/6b,{16}3,4,3,4,{32}5,6,7,8,2,3,4,5,1,8,7,6,4,3,2,1,
{4}8w4[1:4],8b,
E
