&title=宵加減テトラゴン
&artist=コーロまちカド
&first=-2.1234
&des=リコともも
&lv_6=13
&inote_6=(166)
{16},,,,
,,,,
,,,,
,,,,
{16},,,,
,,,,
,,,,
{24},,,2x,3x,4x,
{16}5xb/6xb,,,1xb/8xb,
,,3xb/4xb,,A1,A2,A3,A4,A5,A6,A7,A8,
{16}Cf/1x-3-5-7-1b[8:4],,,,
,,,,
,,,,
,,3,5,
{16}4h[16:3],,,5,
3,,16,,
2h[8:1],,E3,,
7h[8:1],,E7,,
{16}4h[16:3],,,6h[16:3],
,,3,,
5h[16:3],,,3h[16:3],
,,6,4,
{16}5h[16:3],,,4,
6,,83,,
7h[8:1],,E7,,
2h[8:1],,E3,,
{16}5h[16:3],,,3h[16:3],
,,8,,
4h[16:3],,,6h[16:3],
,,1,8,
{16}2bx/7bx,,,3bx/5bx,
,,4bx/8bx,,
2h[8:1],,E3,,
7h[8:1],,E7,,
{16}3V17[4:1],,,,,,,,
6V82[4:1],,,,,,,,
{16}4h[16:3],,,6h[16:3],
,,2,,
E3f,,,78,
,,78,,
{16}4h[16:3],,,6h[16:3],
,,2,,
E3f,,,71,
,,17,,
{16}6-8[8:1],,,,
E3f,,,,
6-1[8:1],,,,
E3f,,,,
{16}3h[8:6]/6x-4-2-8-6b[8:4],,,,
,,,,
,,,,
,,,,
{16}1V35[16:4],,,,
5v2[8:1],,,,
7,,,7,
,,6xpp8b[16:4]/1xqq8b[16:4],,
{16}2,,,,
,,,,
2xh[8:1]/6xh[8:1],,,,
3xh[8:1]/7xh[8:1],,,,
{16}5-1[8:1],,4,,
6,,,,
2h[16:2]/8h[8:1],,,3h[16:2]/7h[8:1],
,,46,,
{16}3h[16:2]/5h[8:1],,,6h[16:2]/2h[8:1],
,,7h[8:3]/1,,
,,D2,A2,
D3,,,,
{16}24,,3,,
57,,6,,
3h[16:3]/5,,,1h[16:3],
,,2,,
{16}3b/7b,,,1b/5b,
,,4b/8b,,
3bp6b[16:2]/7b,,,,
C,,,,
{16}45,,2,4,
3,,54,,
7-4[8:1],8,,8,
7,,3,,
{16}2-5[8:1]/1,,8,,
2,,6,,
3xh[8:1]/7xh[8:1],,,,
1xh[8:1]/5xh[8:1],,,,
{16}37,,6,4,
5,,37,,
4x-2b[8:1],4x,,8x,
8xpp8[4:1]*qq8[4:1],,,,
{16}8-4^5[24:4],,,,
,,,,E4,E3,E2,,
E6,E7,E8,,
{16}2/8x,,3,4,
3,,25,,
17,,6,5,
6,,47,,
{16}3qq4[16:5],,,4x,
,,5,,
6pp5[16:5],,,5x,
,,4,,
{16}3V15[4:1],,,5x,
,,6,,
7V51[4:1],,,1x,
,,2,,
{16}2q6[8:1]*v5[8:1],,,,
,,,,
47,,8,,
25,,1,,
{16}6^3[8:1],,,,
2^7[8:1],,,,
4-8[8:1],,,,
1-5[8:1],,,,
{16}1x-7-2-6-3-5-3-6-2-7-1b[2:6],,,,
,,,,
,,,,
,,,,
{16},,,,
,,,,
,,,,
,,,,
{16},,,,
,,,,
,,,,
,,,,
{16},,,,
,,,,
3-1[8:1]/5-7[8:1],,,,
,,,,
{16}2/8-4[8:1],,,1,8
,,3,,
3-8[8:1],,,4,
3,,6,6,
{16}1-5[8:1],,,8,
1,,6,,
37,,1,2,
3,5,6,7,
{16}1b/8b,,2,4,
3,,7,5,
6,,4,3,
2,8,7,6,
{16}5bh[8:1]/4bh[8:1],,,3bh[8:1]/7bh[8:1],
,,2b/6b,,
1b-4[8:1]/8b-5[8:1],,,,
,,,,
{16}3bh[8:1]/7bh[8:1],,,5bh[8:1]/1bh[8:1],
,,2b/6b,,
6bh[8:1]/2bh[8:1],,,4bh[8:1]/8bh[8:1],
,,7b/3b,,
{16}6bh[8:7]/1b^2^3^4^5^7^8^1b[8:5],,,,
,,,,
,,,,
,,,,
{16}37,,5,4,
6-8[8:1],,3,,6
,,2,3,
4p8[8:1],,5,,
{16}4/7-3[8:1],,,,
7v5[8:1]/1-5b[8:1],,,,
1b,,,,
74,,3,,
{16}62,,4,5,
3-1[8:1],,6,,3
,,7,6,
5q1[8:1],,4,,
{16}5/2-6[8:1],,,,
2v4[8:1]/8-4b[8:1],,,,
8b,,,,
25,,7,7,
{16}3h[16:3],,,6-8[16:2],,,8,,
1-5[8:1],,,,
12,,3,,
{16}6h[16:3],,,3-1[16:2],,,1,,
8-4[8:1],,,,
87,,6,,
{16}35,,1-5[8:1],8,
2,7,1,,
8<4[8:1]*V64[8:1],,,,
,,,,
{16}1xbh[8:1]/5xbh[8:1],,,3bh[8:1]/7bh[8:1],
,,2b/6b,,
{32}1x,2x,3x,4x,5x,6x,7x,8x,
{16}1x,,37,,
{16}45,,6,8,
7-5[8:1],,1,,
74,,3,2,
1-5[8:1],,5,,
{16}1V35V71[8:3],,,,
6,,,,
Cf,,,,
2<4[16:5],,,,
{16}E7/B6f/E6,,,,
,,,,
35,,8,1,
7p3[8:1],,3,,
{16}4/7,,,2h[16:3],
,,6,,
8b/4b,,,,
2x-5[8:1]/6x-1[8:1],,,,
{16}2<3[16:5],,,,
,,,,Cf,,,,
7x-4[8:1]/3x-8[8:1],,,,
{16}7>6[16:5],,,,
,,,,Cf,,,,35,,,,
{16}7-5[8:1]/5,,,,
2,,2-4[8:1],,
,,4,,
,,6,7,
{16}8pp2[16:3]*qq6[16:3],,,,
,,,,
35,,,47,
,,26,,
{16}4v3^1[8:2]/8v7^5[8:2],,,,
,,,,
,,,,
2/8<2pp3[8:4],,1,,
{16}8/6h[8:4],,,,
,,,,
,,,,
3-8[8:1],4,2,5,
{16}3^6[8:1],,,,
13,,,,
3b/7b,,,1b/5b,
,,Cf,,
{16}3h[8:1]/4h[8:1],,,3h[8:1]/4h[8:1],
,,25,,
1h[8:1]/8h[8:1],,,1h[8:1]/8h[8:1],
,,2/7,,
{16}6h[8:1]/5h[8:1],,,6h[8:1]/5h[8:1],
,,74,,
1h[8:1]/8h[8:1],,,1h[8:1]/8h[8:1],
,,2/7,,
{16}4bxh[8:1]/3bxh[8:1],,,18,
,,18,,
5bxh[8:1]/6bxh[8:1],,,81,
,,81,,
{32}27,36,4^1^4[8:3]/5^8^5[8:3],
,,,,
,,,,,
&inote_7={16}57,,3,4,
2v5[8:1],,1,,
28,,,6,
6<1[8:1],,4,,
{16}26,,,,
3v8[8:1]/7-4[8:1],,,,
73,,,,
2b/6b,,5,,
{16}43,,6,5,
7<4[8:1],,8,,
71,,,3,
3v8[8:1],,5,,
{16}73,,,,
6<1[8:1]/2>5[8:1],,,,
26,,,,
7b/3b,,6,6,
{16}5,,8-4[8:1],1,
7-5[8:1],,8,,
7,,,,
26,,3,3,
{16}4,,1-5[8:1],8,
2-4[8:1],,1,,
2,,,7,
7,,81,,
{16}36,,2,4,
,7,5,,
8v5[8:1]/4v1[8:1],,,,
48,,,,
{16}7b/3b,,,1,
,,2b/8b,,
1,2,3,4,
5,,68,,
{16}15,,3,4,
2v5[8:1],,81,,
62,,,7,
7p3[8:1]/4,,65,,
{16}37,,,1,
1V35[8:1]*V75[8:1],,82,,
1,,,,
1,,,,
{16}1>4[8:1]/8<5[8:1],,,,
,,,,
26,,7,8,
6<1[8:1],,25,,
{16}36,,,4,
4qq2[8:1]*pp6[8:1],,35,,
4,,,,
8bpp8[4:1]/5b,,,,
{16}8b<3[4:1]/3h[4:1],,,,
,,2,1,
8,,,,
4bpp4[4:1]/1b,,,,
{16}4b>7[4:1]/7h[4:1],,,,
,,6,5,
4,,,,
1b/8b,,,,
{16}6-1[8:1]/5,,,,
46,,3-8[8:1],,
,,43,,
,,27,36,
{16}4>1[8:1]/5<8[8:1],,,,
4b/5b,,,,
2,4,3,7,
5,6,4,5,
{16}4-8[8:1],,3,,
24,,2,,
1-5[8:1]/7,,7,,
61,,,,
{16}3,4,2,6,
5,7,2,4,
3,7,5,6,
1-5[8:1],7,3,5,
{16}1bw5[8:1],,,,
1b,,,,
2b/7b,,,5b/4b,
,,8b/1b,,
{16}2h[8:1]/6h[8:1],,,4h[8:1]/8h[8:1],
,,26,,
7-1[8:1],5,6,5,
7,,2,,
{16}7h[8:1]/3h[8:1],,,5h[8:1]/1h[8:1],
,,37,,
2-8[8:1],4,3,4,
2,,7,,
{16}6-1[8:1],5,7,5,
6,,2,,
3-8[8:1],4,2,4,
3,,7,,
{16}5bw1[4:2]/4bw8[4:2],,,,
,,,,
,,,,
