&title=「Spread your Wings」
&artist=東方LostWord feat. cluppo × TUMENECO
&first=0
&des=『代投,已获得授权』谱师们要求匿名
&lv_5=14
&inote_5=(165){1},
{8}2,3/1h[8:3],,,,,,,4,3h[4:1]/5h[8:3],,,,,,,
{8}7,6/8h[8:3],,,,,,,5,6h[4:1]/4h[8:3],,,,,
{16}B3,B4,B5,B6,E1f,,,,,,,,,,,,,,,,
{8}4,3h[4:1],,5,4,6h[4:1],,5,
{8}4/5,,,2/4,,,5/7,,
{8}2h[8:1],4h[8:1],5h[8:1],7,
{16}1-5b[8:1],8,3,6,1b,,,,
{16}7,,5,6,4-2[8:1],,2,,5-1[8:1],,6,,4-2[8:1],,,,5,,6,,4/7,,5,,4/6,,3,,2/5,,4,,
{16}3/5,,6,5,7-5[8:1],,8,,4-8[8:1],,3,,7-5[8:1],,,,4,,3,,2/4,,3,,4/6,,5,,4/7,,3,,
{16}2,,4,3,5-7[8:1],,7,,4-8[8:1],,3,,5-7[8:1],,,,4,,3,,5/2,,4,,5/3,,6,,7/4,,5,,
{8}6h[4:1],5,3,5h[4:1],4,2,4<2[16:10],3qq5[4:3]b,
{1},
{8}4,3h[8:3]/5,4hx[8:4],,,,,,5,4/6h[8:3],5hx[8:4],,,,,,3,2h[8:3]/5,4hx[8:4],,,,,,6,4/7h[8:3],5hx[8:4],,,,,,
{16}6-1[8:1],,,,2h[4:1],,,,1x-5[8:1],,,,8h[4:1],,,,5x>8[16:5],,,,1<5[4:1],,,,3xpp2[16:5],,,,,,,,8,,8,,1/7,,1/7,,2/6,,4,,3/7,,5,,4/6,,5,,2/4,,3,,4,3,5,4,6,5,7,6,
{8}8>3[8:1],,5p1[8:1],,5-7-4-2[8:3],6,1x,1xh[8:3],,,,7,6/8>3[8:1],,5,5h[8:3],,,4q8[8:1],,4-2-5-7[8:3],,8x,8xh[8:3],,,1-5[8:1],,3,2,1-5[8:1]/7-4[8:1]b,,,,
{16}3h[4:1],,,,4x-8[8:1],,,,6h[4:1],,,,8x>5[16:5],,,,4<8[4:1],,,,8pp1[16:4],,1,,2,,,,4,,4,,3/5,,2,,4/6,,7,,5/6,,4/5,,3qq5[16:10]/4<2[16:7],,,,
{4},,,
{8}4hx[8:3],,,5,5h[8:2],,B4/E5,,
{16}6/5,,,5/4,,,4/3,,C,,,,,,,,
{8}5hx[8:3],,,4,4h[8:2],,B5/E5,,
{16}2/4,,,7/5,,,1/8,,2b-5[8:1]/7b-4[8:1],,,,2x-5>4-2<1-5-7-4[4:6],,,,6h[4:1],,,,,,,,7h[4:1],,,,,,,,
{2}8h[4:1],
{16}E7,,,E3,,,C,,
{8}3h[8:3]/5,,,5,4h[4:1]/6x,,E5/B5,,
{16}7/5,,,2/4,,,1/8,,3x-8>1-6[4:4]/6x,,,,,,,,5h[4:1],,,,,,,,4h[4:1],,,,,,,,3h[8:1]/5h[8:1],,,,6h[8:1]/4h[8:1],,,,
{16}1-5[8:1]b,8,3,6,1b,,,,
{8}1>4[8:1],3,5,7,5-1[8:1],6,5,8,3V15[4:1],,5-7[8:1],,8-4[8:1],1,3,3,2-6[8:1]/5,1,4q8[8:1],3,4-2-5-1[16:7],2,8x,8hx[8:3],,,,,4q8[8:1],,4-2-5-7[8:3],3,,8x,8x,,1v6[8:1],2,4,4q8[8:1],,,1<3[8:3],,4,2,8h[4:1],,2x>5[8:1],4,6,8,1>4[8:1],3,5,7,8>3[8:1],2,4,6,
{8}7-4[8:1],,4-8[8:1],3,2-6[8:1],,1-4[8:1],,3-8[8:1],,7-4[8:1],6,5-1[8:1],,2-5[8:1],,8-4[8:1],,4-7[8:1],3,2-6[8:1],,1-4[8:1],,5-8[8:1],,7,6,5-2[8:1]/1-4[8:1],,5-8[8:1]/1-6[8:1],,5pp4[16:4],,5>7[16:7],,A5/A4/D5f,,,,
{16}5-1[8:1],,,4,5,,2,,3h[16:3],,,5h[16:3],,,7,,8>3[8:1],,,2,8,,4,,6h[4:1],,5,,3,,5h[4:1],,4,,2,,4,,3,,2/4,,1/5,,4/6,,3/7,,8-4[8:1]b,2,6,4,8b,,,,
{16}2,,4,3,5-7[8:1],,7,,4-8[8:1],,3,,5-7[8:1],,,,4,,3,,5/2,,4,,5/3,,6,,7/4,,5,,
{16}6/4,,3,4,2-4[8:1],,1,,5-1[8:1],,6,,2-4[8:1],,,,5,,6,,7/5,,6,,5/3,,4,,5/2,,6,,
{16}7,,5,6,4-2[8:1],,2,,5-1[8:1],,6,,4-2[8:1],,,,5,,6,,4/7,,5,,4/6,,3,,2/5,,4,,
{8}3h[4:1],4,6,4h[4:1],5,7,5,6,
{16}5/7,,4/8,,3/5,,2/6,,1,8,3,,2b-5[8:1]/6b-1[8:1],,,,2s6[4:2],,,,,,,,,,,,,,,,
{8}5/6,4/7,4/3,2/5,
{16}1,8,1,,3<2[4:8]/6,,Cf,,,,,,,,,,,,,,,,,,,,,,,,,,,,,,,,,,,,,,,,,,,,,,,,
E
