&title=archive::zip
&artist=kamome sano
&first=0
&des=SpicyChili
&lv_5=12
&inote_5=(185)
{16}
,,,,,,,,
,,,,,,,,
,,,,,,,,
,,,,,,,,
4h[8:7],,,,,,,,
,,1,,,,8h[8:7],,
,,,,1,,,,
2,,,,3,,4,,
5h[8:7],,,,,,,,
,,8,,,,1h[8:7],,
,,,,,,,,
7,,,,6,,5,,
4qq1[4:3],,,,,,,,
8,,,,,,,,
7h[2:1],,,,2V48[2:1],,,,
,,,,6,,,,
5pp8[4:3],,,,,,,,
1,,,,,,1<2[2:1]*>8[2:1],,
,,,,,,,,
,,,,,,,,
2V48[2:1]/7,,26,,5-7[4:1],,,,
,,,,,,,,
1h[4:3]/7h[4:3],,,,,,,,
,,,,,,,,
6V84[2:1]/3,,62,,1-3[4:1],,,,
,,,,,,,,
5h[4:3]/3h[4:3],,,,,,,,
,,,,,,,,
2-5[8:1],,2,,7-4[4:1],,,,
4q8[4:1],,,,2,,,,
3-8[8:1],,3,,6-1[4:1],,,,
1p5[4:1],,,,3,,,,
2,,2,,6,3,5,4,
7,,7,,3,6,4,5,
{12}
2,4,3,7,5,6,
{16}
8<5[8:1]*>3[8:1],,26,,8qq4[4:3]*pp4[4:3],,,,
,,,,,,,,
,,,,,,,,
4h[4:1],,5,,6,,7,,
8h[4:1]/4>2[8:1],,,,,,,,
4-1[8:1]/7h[4:1],,,,,,,,
6h[4:1]/4p8[8:1],,,,,,,,
5h[4:1],,,,1,,2-6[8:1]/6,,
27,,,,8-3[8:1],,,,
5-1[8:1],,,,7h[4:1],,,,
,,8,,71,,26,,
5h[4:1],,4,,3,,2,,
1h[4:1]/5<7[8:1],,,,,,,,
5-8[8:1]/2h[4:1],,,,,,,,
3h[4:1]/5q1[8:1],,,,,,,,
2-5[8:1],,8-4[8:1],,2,,8,,
,,,,3,,4h[4:1]/2h[4:1],,
,,,,,,5h[4:1]/7h[4:1],,
,,,,1b/8b,,,,
25,,3,,47,,6,,
5v7[8:1]/1v3[8:1],,,,,,,,
3V15[4:1]/8V25[4:1],,,,,,,,
,,,,26,,,,
74,,6,,52,,3,,
4-8[8:1]/8-6[8:1],,,,,,,,
7q4[8:1]/1>4[8:1],,,,,,,,
,,25,,36,,47,,
38,,2,,16,,7,,
8v6[8:1]/4v2[8:1],,,,,,,,
2V48[4:1]/5V38[4:1],,,,,,,,
,,,,37,,26,,
1-5[8:1],,7-4[8:1],,1,,7,,
,,2,,1w5[8:1],,,,
1,,,,8w4[8:1],,,,
8,,,,2b/7b,,,,
38,,,,3z7[4:1]/8s4[4:1],,,,
,,,,,,,,
1h[4:1]/6h[4:1],,,,,,8h[8:3]/3h[8:3],,
,,,,,,,,
1-4[8:1]/7-4[8:1],,,,,,,,
37,,2h[8:1]/6h[8:1],,,,,,
2,3,4,85,7,6,5,4,
1-4[8:1]*-6[8:1],,,,1,,,,
74,,,,7z3[4:1]/4s8[4:1],,,,
,,,,,,,,
5h[4:1]/2h[4:1],,,,,,4h[8:3]/7h[8:3],,
,,,,,,,,
71,,6,,53,,4h[8:1],,
,,,,82,,3,,
46,,5,,47,,2,,
8,,1,,6,,3,,
8-5[8:1]/2-5[8:1],,,,82,,,,
62,,7h[8:1]/3h[8:1],,,,,,
1h[4:1]/6h[4:1],,,,,,8h[8:3]/3h[8:3],,
,,,,,,,,
4-1[8:1]/5-8[8:1],,,,,,,,
2-5[8:1]/7-4[8:1],,18,,27,,,,
1q5[8:1],,1,,7-3[8:1],,7,,
8w4[8:1],,,,8,,,,
2h[8:1]/6h[8:1],,,,1h[8:1]/7h[8:1],,,,
8,7,6,5,41,2,3,4,
8h[256:1],,,,1h[256:1],,,,
7-3[8:1]/2-6[8:1],,,,27,,,,
1,2,3,4,5,6,7,8,
1b,,,,1b,,,,
3,4,3,2,,,6,5,
6,7,,,1,2,3,4,
65,,17,,8,2,6,,
5-1[8:1],,4,,2-7[8:1]/5,,3,,
62,,5,,3>8[8:1]/4-8[8:1],,,,
34,,,,7,6,5,4,
1h[8:1],,,3,1,,8,2,
7h[8:1],,,1,7,3,6,,
2,,2,,75,,7,,
8,1,7,2,6,3,5,,
34,,82,,1,7,3,,
4-8[8:1],,5,,7-2[8:1]/4,,6,,
37,,4,,6<1[8:1]/5-1[8:1],,,,
65,,,,2,3,4,5,
8>3[8:1],,8,,8/5-1[8:1],,5,,
85,,,,7,1,5,,
,43,,,26,,,84,
,15,,,3b/6b,,,,
5,3,4,,17,,65,,
4v1[8:1],,5,,7-2[8:1]/4,,6,,
37,,4,,6<1[8:1]/5-1[8:1],,,,
65,,,,2,3,4,5,
8h[8:1],,,6,8,,1,7,
2h[8:1],,,8,2,6,3,,
7,,7,,24,,2,,
8,1,7,3,6,4,5,,
24,,2,,26,,2,,
35,,3,,38,,3,,
75,,7,,73,,7,,
64,,6,,61,,6,,
1,8,2,7,3,6,4,5,
2,7,4,5,1,8,3,6,
{32}
1,2,3,4,5,6,7,8,
1,2,3,4,5,6,7,8,
15,4,3,2,1,8,7,6,
5,4,3,2,1,8,7,6,
{16}
5/1bq4[4:7],,,,,,,,
,,,,,,,,
,,,,,,,,
,,,,,,,,
5q8[2:3],,,,,,,,
,,,,,,,,
1,,,,2,,,,
3,,,,4,,,,
46,,,,46,,,,
35,,1,,35,,,,
61,,,,62,,7,,
63,,7,,64,,,,
7-4[8:1],,,,2,,1-5[8:1],,
,,4,,4-8[8:1],,,,
1b,,,,,,,,
,,,,,,,,
8,,,,8,,,,
8,1,8,,7/2-5[8:1],,,,
2b/8b-4[8:1],,7,,8b-6[8:1]/1b-5[8:1],,,,
8b/1b,,,,4,6,3,7,
1-6[8:1],,2,,1-4[8:1]/3,,,,
71,,6,,54,,3,,
25,,1,,74,,8,,
2,8,1,7,3,6,4,,
53,,18,,6,5,7,,
1h[8:1],,4,,8h[8:1],,5,,
7/1-5[8:1],,2,,1-3[8:1]/8-4[8:1],,,,
18,,,,5,3,6,2,
8-3[8:1],,7,,8-5[8:1]/6,,,,
28,,3,,45,,6,,
57,,,63,,,15,,
84,,,,6b/3b,,,,
1,8,1,,7/2-5[8:1],,2,,
8-4[8:1]/2,,8,,83,,2,,
7/1-5[8:1],,2,,1-3[8:1]/8-4[8:1],,,,
18,,,,5,3,6,2,
8-3[8:1],,7,,8-5[8:1]/6,,,,
28,,3,,45,,6,,
74,,8,,25,,1,,
7,1,8,2,6,3,5,,
46,,81,,3,4,2,,
8h[8:1],,5,,1h[8:1],,4,,
2/8-4[8:1],,7,,8-6[8:1]/1-5[8:1],,,,
81,,,,4,6,3,7,
2,,2,,26,,2,,
75,,7,,73,,7,,
{24}
1,2,3,4,5,6,7,8,
1,2,3,4,5,6,7,8,
1,2,3,4,5,6,7,8,
{16}
1,62,,,73,,,84,
,,5V73[16:5]/1V73[16:5],,,,51,,
,,,,,,,,
,,,,,,,,
E
