&title=ドラゴメイト (IA)
&artist=gaburyu
&first=0.02
&des=N0nsense
&lv_5=14
&inote_5=(188)
{4},,,,
{8}2,2,5,5,5,3,3,3,4,5,5,5,5,7,7h[8:2],,
{8}2,2,5,5,5,3,3,3,4,5,5,5,5,7,7,7,
{8}2,2,5,5,5,3,3,3,4,5,5,5,5,7,7h[8:2],,
{8}2,2,5,5,5,3,3,3,
{8}B7,,B8,,B1,,B2,,
{16}7,,4,,6,5,6,5,6,,4/7,,6,5,7,,
{16}2,,5,,3,4,3,4,3,,5/2,,3,4,2,,
{16}7,,4,,6,5,7,5,6,,4/7,,6,5,8,,
{16}2,,5,,3,4,2,4,3,,5/2,,3,4,1,,
{16}6,,1,,7,8,7,8,7,,1/6,,7,8,7,,
{16}3,,8,,2,1,2,1,2,,8/3,,2,1,2,,
{16}6,,1,,7,8,7,8,7,,1/6,,7-4[8:1],8,7,,
{16}2,,2,,2,,2,,2,,2,,2/C,,2,,
{16}7/1h[32:1],,7,,7/2h[32:1],,7,,7/3h[32:1],,8,,8h[8:1]/4h[32:1],,,,
{8}7h[8:1]/1h[32:1],,2h[32:1],7,7/3h[32:1],7,7/4h[32:1],7,
{8}7/1h[32:1],7,7/2h[32:1],7,7/3h[32:1],8,8/4h[32:1],8,
{8}7h[8:1]/1h[32:1],,2h[32:1],7,7/3h[32:1],7,7/4h[32:1],7,
{8}7/1h[32:1],7,7/2h[32:1],7,7/3h[32:1],8,8/4h[32:1],8,
{8}7h[8:1]/1h[32:1],,2h[32:1],7,7/3h[32:1],7,7/4h[32:1],7,
{8}7-4[8:1],7,8-3[8:1],,,,7-4[8:1],7,8-3[8:1],,,6,6h[8:1],,,2,
{16}2/8h[32:1],,2,,2/7h[32:1],,2,,2/6h[32:1],,2,6h[32:1],2h[8:1],,5h[32:1],,
{16}2/8h[32:1],,2,,1h[8:1]/7h[32:1],,,,1/6h[32:1],,2,6h[32:1],2h[8:1],,5h[32:1],,
{16}2/8h[32:1],,2,,2/7h[32:1],,2,,2/6h[32:1],,2,6h[32:1],2q5[8:6],,5h[32:1]/2,,
{16}2b,,,,,,,,,,B6/E6,,B6/E6,,,,
{8}2/6h[32:1],2,2-5[8:1]/6h[32:1],2,2/6h[32:1],,7-4[8:1]/3h[32:1],7,7/3h[32:1],,2-5[8:1]/6h[32:1],2,2/6h[32:1],,7-4[8:1]/3h[32:1],,
{8}2/A7f,2,2-5[8:1]/6h[32:1],2,2/6h[32:1],,7-4[8:1]/3h[32:1],7,7/3h[32:1],,2-5[8:1]/6h[32:1],2,2/6h[32:1],,7-4[8:1]/3h[32:1],,
{8}1,,1qq6[8:3],,{16}2h[32:1],,,3h[32:1],,,4h[32:1],,
{8}5,,5qq2[8:3],,{16}6h[32:1],,,7h[32:1],,,8h[32:1],,
{16}1,,1,2,{8}1qq6[8:3],,{16}2h[32:1],,,3h[32:1],,,4h[32:1],,
{16}5,,5,6,{8}5qq2[8:3],,{16}6h[32:1],,,7h[32:1],,,8h[32:1],,
{16}1,,1,,{16}1qq6[8:3]/3,,3/1,,{16}2h[32:1],,,3h[32:1],,,4h[32:1],,
{16}5,,5,,{16}5qq2[8:3]/7,,7/5,,{16}6h[32:1],,,7h[32:1],,,8h[32:1],,
{8}1-4[8:1],3,2>5[8:1],,6-3[8:1],7-2[8:1],6,7,8-5[8:1],,1pp4[8:3],,,,,,
{8}8-4[8:1],4-6[8:1],8,3,{16}A1,,,A2,7h[8:1],,A3,,
{8}8-5[8:1],5-7[8:1],8,4,{16}A1,,,A2,7h[8:1],,A3,,
{8}8-6[8:1],6<3[8:2],8,5,5h[8:2],,4x-7[8:1],,2-5[8:1],1-6[8:1],2,1,3h[8:2],,C,,
{8}1-5[8:1],5-3[8:1],1,6,{16}A8,,,A7,2h[8:1],,A6,,
{8}1-4[8:1],4-2[8:1],1,5,{16}A8,,,A7,2h[8:1],,A6,,
{8}1-3[8:1],3>6[8:2],1,4,4h[8:2],,5x-2[8:1],,7-4[8:1],8-3[8:1],7,8,6h[8:2],,{32}1,2,3,4,5,6,7,8,
{8}1/Cf,,,,,,,,,,,,,,,,,,,,,,,,,,,,,,,,
{32}E1,D1,,,,,,,,,,,,,,,E3,D3,,,,,,,,,,,,,,,E5,D5,,,,,,,,,,,,,,,E7,D7,,,,,,,,,,,,,,,
{32}E1,D1,,,,,,,,,,,,,,,E3,D3,,,,,,,,,,,,,,,E5,D5,,,,,,,,,,,,,,,E7,D7,,,,,,,,,,,,,,,
{32}E1/5,D1,,,,,,,,,,,,,,,E3/7,D3,,,,,,,,,,,,,,,E5/1,D5,,,,,,,,,,,,,,,E7/3,D7,,,,,,,,,,,,,,,
{32}E1/5,D1,,,,,,,,,,,,,,,E3/7,D3,,,,,,,,,,,,,,,8h[8:2]/1h[8:2],,,,,,,,,,,,,,,,
{6}1b/8b,1b/8b,1b/8b,{24}1b/8b,2/7,3/6,{8}4/5,,,
{6}1b/8b,1b/8b,1b/8b,{24}1b/8b,2/7,3/6,{8}4/5,,,
(94)
{16}1-5[16:1],8,2h[8:1],,1,3,3,,
{12}1b/8b,1b/8b,1b/8b,{48}1b/8b,2/7,3/6,{16}4/5,,,
{12}1b/8b,2b/7b,2b/7b,{48}1b/8b,2/7,3/6,{16}4/5,,,
{12}1b/8b,2b/7b,2b/7b,{48}1b/8b,2/7,3/6,{16}4/5,,,
{16}8-3[16:1],1,7h[8:1],,8p5[8:3],6,6,6
,,,,,,,,,
{12}2b/1b,8b,3b,{48}2b/1b,3/8,4/7,{16}5/6,,,
{12}2b/1b,8b,3b,{48}2b/1b,3/8,4/7,{16}5/6,,,
{16}2-6[16:1],1,3h[8:1],,2,4,4,,
{12}2b/1b,8b,3b,{48}2b/1b,3/8,4/7,{16}5/6,,,
{12}7b/8b,1b,6b,{48}7b/8b,6/1,5/2,{16}4/3,,,
{12}7b/8b,1b,6b,{48}7b/8b,6/1,5/2,{16}4/3,,,
{16}7-3[16:1],8,6h[8:1],,7,5,5,,
{12}7b/8b,1b,6b,{48}7b/8b,6/1,5/2,{16}4/3,,,
{12}1b/8b,2b/7b,3b/6b,{48}1b/8b,2/7,3/6,{16}4/5,,,
{12}1b/8b,2b/7b,3b/6b,{48}1b/8b,2/7,3/6,{16}4/5,,,
{16}1q3[16:3]/8p6[16:3],1/8,1/8,,1/8,,,,
{12}1b/8b,2b/7b,3b/6b,{48}1b/8b,2/7,3/6,{16}4/5,,,
{24}1b/8b,,1b,8b,2b,,{48}2b/1b,3/8,4/7,{16}5/6,,,
{24}8b/1b,,8b,1b,7b,,{48}7b/8b,6/1,5/2,{16}4/3,,,
{16}1q3[16:3]/8p6[16:3],1/8,1/8,,1/8,,,,
{12}1b/8b,2b/7b,3b/6b,{96}1b/8b/D1f,D8f/D2f,2/7,D7f/D3f,3/6,D4f/D6f,4/5,D5f,,,,,,,,,,,,,,,,,
(188)
{8},,,,
{8}7,7,4,4,4,6,6,6,5,4,4,4,4,2,2h[8:2],,
{8}7,7,4,4,4,6,6,6,5,4,4,4,4,2,2,2,
{8}7,7,4,4,4,6,6,6,5,4,4,4,4,2,2h[8:2],,
{8}7,7,4,4,4,6,6,6,5,4,4,4,4,2,C,,
{16}2,,5,,3,4,3,4,3,,5/2,,3/C,2,1,,
{16}7,,4,,6,5,6,5,6,,4/7,,6/C,7,8,,
{16}2,,5,,3,4,2,4,3,,5/2,,3/C,2,1,,
{16}7,,4,,6,5,7,5,6,,4/7,,6/C,7,8,,
{16}3,,8,,2,1,2,1,2,,8/3,,2/C,3,4,,
{16}6,,1,,7,8,7,8,7,,1/6,,7/C,6,5,,
{16}3,,8,,2,1,2,1,2,,8/3,,2-5[8:1],1,2,,
{16}7,,7,,7,,7,,7,,7,,7/C,,7,,
{16}2/8h[32:1],,2,,2/7h[32:1],,2,,2/6h[32:1],,1,,1h[8:1]/5h[32:1],,,,
{8}2h[8:1]/8h[32:1],,7h[32:1],2,2/6h[32:1],2,2/5h[32:1],2,
{8}2/8h[32:1],2,2/7h[32:1],2,2/6h[32:1],1,1/5h[32:1],1,
{8}2h[8:1]/8h[32:1],,7h[32:1],2,2/6h[32:1],2,2/5h[32:1],2,
{8}2/8h[32:1],2,2/7h[32:1],2,2/6h[32:1],1,1/5h[32:1],1,
{8}2h[8:1]/8h[32:1],,7h[32:1],2,2/6h[32:1],2,2/5h[32:1],2,
{8}2-5[8:1],2,1-6[8:1],,,,2-5[8:1],2,1-6[8:1],,3,,3h[8:1],,,7,
{16}7/1h[32:1],,7,,7/2h[32:1],,7,,7/3h[32:1],,7,3h[32:1],7h[8:1],,4h[32:1],,
{16}7/1h[32:1],,7,,8h[8:1]/2h[32:1],,,,8/3h[32:1],,7,3h[32:1],7h[8:1],,4h[32:1],,
{16}7/1h[32:1],,7,,7/2h[32:1],,7,,7/3h[32:1],,7,3h[32:1],7p4[8:6],,4h[32:1]/7,,
{16}7b,,,,,,,,,,B3/E4,,B3/E4,,,,
{8}7/3h[32:1],7,7-4[8:1]/3h[32:1],7,7/3h[32:1],,2-5[8:1]/6h[32:1],2,2/6h[32:1],,7-4[8:1]/3h[32:1],7,7/3h[32:1],,2-5[8:1]/6h[32:1],,
{8}7/A2f,7,7-4[8:1]/3h[32:1],7,7/3h[32:1],,2-5[8:1]/6h[32:1],2,2/6h[32:1],,7-4[8:1]/3h[32:1],7,7/3h[32:1]',,2-5[8:1]/6h[32:1],,
{16}2/8<6[8:1],,7,,8>2[8:1],,1,,8-4[8:1],,,6h[32:1],8,,6h[32:1],,
{16}1>3[8:1],,2,,1<7[8:1],,8,,1-5[8:1],,,3h[32:1],1,,3h[32:1],,
{16}8/7,,6,,8/7,,1,,2/5,,3,4,2,4,3,,5/6,,7,,5/6,,4,,
{32}2h[8:1],,,,8,7,6,5,1,8,7,6,5,4,3,2,
{16}1b-4[8:1]/5b-8[8:1],,,,1/5,,,,2/5,,3,4h[8:1],,3,4h[8:1],,2,,3,,4/5,,6,,
{16}7/4,,6,5h[8:1],,6,5h[8:1],,6,,7,,8/1,,2,,3/8,,2,1,3,1,2,,7,,6,,5/4,,3,,
{16}2-7[8:1]/5-8[8:1],,,,2/5,,,,
{16}1>8[8:62]/E7f,,,,B7f,,,,E7f,,,B6f,,,B5f,,E7f,,,,B7f,,,,E7f,,,B6f,,,B5f,,E7f,,,,B7f,,,,E7f,,,B6f,,,B5f,,E7f,,,,B7f,,,,E7f,,,B6f,,,B5f,,1h[32:1],,,,2h[32:1],,,,1h[32:1],,,2h[32:1],,,3h[32:1],,1h[32:1],,,,2h[32:1],,,,1h[32:1],,,2h[32:1],,,3h[32:1],,1h[32:1],,,,2h[32:1],,,,1h[32:1],,,2h[32:1],,,3h[32:1],,1h[32:1],,,,2h[32:1],,,,1h[32:1],,,2h[32:1],,,3h[32:1],,Cf,
