&title=Classy Kitty
&artist=Snakywine
&first=0.071
&des=zirconium
&wholebpm=100.000
&lv_5=14
&des_5=zirconium
&inote_5=(100)
{16}3h[8:1]/4h[8:1],,,,
{24}5/4,,,,,6h[8:1],
{16}5h[8:1],,,,
5/4,,4/3,,
{16}2h[8:1],,5,,
6h[8:1],,5,,
7V16[4:1],,,,
,,,,
{16}2h[8:1],,,,
5/3,,6/4,,
7h[8:1],,,,
8/1,,2,,
{16}3h[8:1]/4h[8:1],,,,
6h[8:1]/5h[8:1],,,,
7/2,,6/3-6[12:1],,
5/4,,,,
{16}7h[8:1],,8,,
{24}6/1,,,2,,3h[8:1],
{16}4h[8:1],,,,
{24}5/4,,,6,,5,
{24}7h[8:1],,,3,,4,
{16}2h[8:1],,1,,
{24}3,,3,4,,4,
{16}5h[8:1],,8,,
{16}3h[8:1]/7h[8:1],,,,
{24}4h[8:1]/2h[8:1],,,,,5,
4,,6,5>3[12:1],,7,
{16}7,,,,
{24}7h[12:1],,8,7,,,
2h[12:1],,1,2,,,
{16}7/1,,5/3,,
6b/2b,,,,
{24}1/8,,,5/3-5[12:1],,6,
{16}4,,8,,
{24}7,,7,5,,,
3,,3,5,,,
{24}8/1,,,4/6-4[12:1],,3,
{16}5,,1,,
{24}2,,2,4,,,
6,,6,4,,,
{24}3/7,,,8/2-8[12:1],,7,
{16}1,,5,,
{24}7,,8,6,,,
1>4[12:1],,8,2,,,
{16}8<5[12:1],,B2/E3,,
1,,B7/E7,,
2,,6/E5/B4,,
{24}2/E1/B8,,,5,,5,
{16}4-8[12:1],,B2/B3,,
{24}6,,,7,,7,
1,,1,5,,6,
4,,3,5,,6,
{16}1-5[12:1],,B2/B3,,
{24}6,,,7,,7,
5,,5,4,,4,
1,,2,8,,7,
{16}3-8[12:1],,E5/E6/B5,,
{24}7,,,6,,6,
1,,4,8,,5,
1,,6,2,,7,
{16}8h[8:1]/3h[24:5],,,,
1h[8:1]/6h[24:5],,,,
{24}3,,5,2,,7,
4,5,4,6,3,6,
{24}2h[12:1],,1,3,,4,
2,,3,1,,4,
2,,5,3,,5,
4,,4,6,,5,
{24}7h[12:1],,8,6,,5,
7,,6,8,,5,
1,,7,3,,8,
5,,6,4,,5,
{24}3-1[12:1],,,4,,4,
3,,6,6,,2,
7,,3,8,,4,
7,,6,2,,3,
{24}5-7[12:1],,,2,,2,
5-1[12:1],,,3-7[12:1],,3,
{16}5x<8[12:1],,,,
,,1b,,
{24}7-5[12:1],,,8,,1,
7/2-4[12:1],,,1,,8,
{16}2/7-3[12:1],,6-2[12:1],,
,,,,
{24}3-8b[12:1],,,4,,5,
3/6-1b[12:1],,,5,,4,
{16}6/3-8b[12:1],,2-5b[12:1],,
,,,,
{24}8b-6[12:1],,,7,,4,
8/3-8b[12:1],,,2,,5,
{16}3/6-2[12:1],,7-4b[12:1],,
,,,,
{24}8,,1,7,,2,
5,,4,7,,2,
{16}1s5b[8:1]/8z4b[8:1],,3/6,,
1x/8x,,,,
{24}6b/3b-1[12:1],,,4,,5,
3-5[12:1],,,5,,5,
{16}3qq1[8:1],,6-4[12:1],,
,,,,
{24}2h[8:1],,,5,,3,
{16}6-3[8:1],,5/3-5[8:1],,
2V83[4:1],,,,
,,6,,
{16}7-4[12:1],,5/4,,
{24}7/2,,,3,,2,
5,,6,3,,3,
{16}4/2h[8:1],,1,,
{24}3h[12:1],,4,1,,,
6h[12:1],,5,8,,7,
2,,6,3-6[12:1],,5,
{16}4,,C,,
{24}8,,,1-5[12:1],,2,
2,,,6-8[12:1],,7,
{16}7,,5-1[8:1],,
{24}4,,,8-4[12:1],,7,
{24}7,,,3-8[12:1],,2,
{16}2,,4,,
{24}6,,,7,,6,
2,,3,8,,7,
{16}2h[8:1]/6h[8:1],,,,
{24}7h[8:1]/5h[8:1],,,,,8,
4,,6,5>2[12:1],,7,
{16}7,,8,,
{24}7-4[12:1],,8,8,,,
7/2-5[12:1],,1,1,,,
{16}7/2,,6,,
1b>8b[4:11]/8b-4[12:1],,,,
{16}8b>8>2[4:15],,,,
,,,,
,,,,
,,,,
{16},,,,
,,,,
,,,,
,,,,
{16},,,,
,,,,
,,,,
,,,,
{16},,,,
,,,,
,,,,
,,,,
{16}6-4[12:1],,,,
E3/B3,,,,
6-4[12:1],,7,,
E3/B3,,,,
{16}3-5[12:1],,,,
E7/B6,,,,
3-5[12:1],,2,,
E7/B6,,,,
{16}7-4[12:1],,,,
E1/B8,,,,
7-4[12:1],,6,,
E4/B4,,,,
{16}2-5[12:1],,,,
B1/E1,,,,
2q5[16:3],,3-8[16:1],,
,,,,
{24}2b,,,5-1[12:1],,4,
{16}6,,3,,
{24}2,,8,3,,7,
1,,7,2,,6,
{24}3,,,1-5[12:1],,8,
{16}2,,7,,
{24}6,,6,4,,4,
8,,8,1,,1,
{24}6,,,3/7-4[12:1],,1,
8,,,7,,3,
{16}2-6[12:1],,1-5[12:1],,
,,,,
{24}4,,,3-8[12:1],,2,
5,,,3,,7,
{16}6<1[12:1],,5>2[12:1],,
,,,,
{24}7,,7,3,,3,
5,,5,4,,4,
6,,7,5,,4,
8,,7,1,,2,
{24}8/2,,,3,,5,
4,,6,3,,7,
7p2[8:1],,1,1qq7[8:1],,,
{16},,,,
{24}8,,8,1,,1,
5,,6,4,,3,
7,,7,2,,2,
6-8[12:1],,4,5,,3,
{24}6-1[12:1],,,3,,3,
6,,,4,,4,
8,3,8,4,7,5,
6,4,5,3,4,2,
{24}3,,1,4,,5,
3,,1,4,,5,
8,,4,7,,6,
1,,5,7,,6,
{24}1,,8,5,,4,
6,,8,5,,4,
8,,3,4,,6,
5,,5,7,,8,
{24}1/8,,,2/6,,2,
8,,7,4,,3,
6,,2,4,,4,
1,,8,2,,7,
{24}1,,,7,,5,
1,,4,8,,5,
7,,7,3,,3,
4,,4,2,,6,
{24}5-3[12:1],,,6,,6,
5-2[12:1],,,7,,7,
5,,,8,,8,
1,,1,4,,4,
{24}2-4b[12:1],,,5,,5,
2-5b[12:1],,,6,,6,
2,,,8,,8,
6,,6,4,,4,
{24}2-8[12:1],,,3,,3,
2/6-4b[12:1],,,7,,7,
{16}6/2-5[12:1],,3-8b[12:1],,
,,,,
{24}4,,4,8,,8,
5qq3[12:1],,5,1<6[12:1],,1,
{16}5V74b[8:1]*s1b[8:1],,,,
5x,,,,
{24}6b/2b-6[12:1],,,1,,8,
2pp4[12:1],,,8,,8,
2>6[8:1],,7,7-1[12:1],,,
{16},,,,
{24}5h[8:1],,,6,,4,
{16}7-2[8:1],,8/2-8[8:1],,
3-5[12:1],,5-1[12:1],,
3,,7,,
{16}6-1[12:1],,5/4,,
{24}6/3,,,2,,3,
8,,7,2,,2,
{16}1/3h[8:1],,4,,
{24}2h[12:1],,1,4,,,
7h[12:1],,8,5,,,
6,5,7,2-7[12:1],1,3,
{16}8,,C,,
{24}5,,,5pp6[8:1],,7,
7,,,2-4[12:1],,3,
{16}3,,1pp3[12:1],,
{24}8,,,5>1[12:1],,6,
{24}6,,,7-4[12:1],,6,
{16}6,,8,,
{24}2,,,3,,2,
6,,7,4,,3,
{16}3h[8:1]/7h[8:1],,,,
{24}6h[8:1]/8h[8:1],,,,,5,
1,,7,8>3[12:1],,6,
{16}6,,5,,
{24}6-1[12:1],,7,7,,,
6/3-8[12:1],,4,4,,,
{16}6/3,,7,,
{24}4b/5bpp7[12:1],,,3,,3,
{24}4b/5b,,,2,,7,
2/7pp1[12:1],,,1,,1,
7<3[8:1],,3,3<7[8:1],,,
{16}4h[8:1],,,,
{24}3h[8:1],,,8,,4,
{16}4-1[12:1],,6,,
{24}4/7-5[12:1],,8,8,,,
7/1,,,2,,5,
{16}3-8[12:1],,4/5,,
{24}3/6,,,7,,6,
1,,2,7,,7,
{16}5/6h[8:1],,4-7[16:1],,
{24}3x/5,,2,2/4-1[16:1],,,
8x/4,,7,4/7,,,
{16}2-5[16:1]/6-1[16:1],,3/7,,
2/6,,7/3,,
{24}2/8,,,4qq3[8:1],,2,
2,,,7-5[12:1],,6,
{16}6,,8qq6[8:1],,
{24}1,,,4<8[8:1],,3,
{24}3,,,2-5[12:1],,3,
{16}3,,1,,
{24}7,,,6,,7,
3,,2,5,,6,
{16}6h[8:1]/2h[8:1],,,,
{24}3h[8:1]/1h[8:1],,,,,4,
8,,2,1,,3,
{16}6-1[16:1],,4,,
{24}6/3-8[16:1],,2,2,,,
3/6-1[16:1],,7,7,,,
{16}3b<6[16:1]/6b-2[16:1],,2,,
6b/3b,,,,
{24}1-5[12:1],,4,4,,,
1/7-3[12:1],,6,6,,,
{16}2-5[12:1]/7-4[12:1],,1,,
2b/7b,,,,
{24}3/6v8[12:1],,5,5,,,
6/3v4[8:1],,2,2,,,
{16}7<3[8:1]/3>7[8:1],,2,,
3b/7b,,,,
{16}Ch[24:1]/B7h[24:1]/B2h[24:1]/E7h[24:1]/B6h[24:1]/B3h[24:1]/E3h[24:1],,,,
,,,,
,,,,
,,,,
{1}
