&title=NIGHT DANCER
&artist=imase
&first=0.03
&des=Richer
&lv_5=13
&des_5=Richer
&inote_5=
(117){4},,,,{1}3s7<7s3>2<1<8<7<6>5>4>3[2:7],
,,,{16}8/1-5[8:1],
,,6,{4}6h[8:1],{8}7<4[8:1],4<7[8:1],,,{4}8-4[8:1],
8/1,{8}1-6[8:1]/2-5[8:1],8/3,{4}1/2,
{16}1/8-4[8:1],,,3,{4}3h[8:1],{8}2>5[8:1],5>2[8:1],,,{4}1-5[8:1],
1/8,{8}8-3[8:1]/7-4[8:1],1/6,{4}8/7,
{16}8/1-5[8:1],,,6,{4}1/6h[8:1],{8}7<4[8:1],4<7[8:1],,,{4}8-4[8:1],
8/1,{8}1-5[8:1]/2-6[8:1],8/3,{4}1/2,
{16}1/8-4[8:1],,,3,{4}8/3h[8:1],{8}2>5[8:1],5>2[8:1],,,{4}1-5[8:1],
1/8,{8}8-4[8:1]/7-3[8:1],1/6,{4}8/7,
{8}2-6[8:1],,,7-4[8:1],,,,3p8[8:5],
,,,,{4}7<4[8:1],7,
{8}7-3[8:1],,,2-5[8:1],,,,6q1[8:5],
,,,,{4}2>5[8:1],2,
2-6[8:1],{8}2/8,7<4[8:1],,7/2,2,3qq8[8:5],
,,{4}7,7<4[8:1],7,
7-3[8:1],{8}7/1,2>5[8:1],,2/7,7,6pp1[8:5],
,,{4}2,2>5[8:1],2,
{8}1/7-3[8:1],6,{4}7/1,{8}8/2-6[8:1],3,{4}8/2,
{8}8/1h[8:1],7,2/6h[8:1],3,5/4h[8:3],3,2,1,
8/2-6[8:1],3,{4}2/8,{8}1/7-3[8:1],6,{4}1/7,
{8}1/8h[8:1],2,7/3h[8:1],6,4/5h[8:3],6,7,8,
1-5[8:1],5-3[8:1],,,E7/B6/B7,5,6,7,
8-4[8:1],4-6[8:1],,,{4}B2/B3/E3,C,
{8}6/2>5[8:1],8/1,{4}2/6,{8}3/7<4[8:1],8/1,{4}7/3,
{8}2-4[8:1],4,8-6[8:1],6,{4}1-5b[12:1],{48}1b>1V75V31[4:7],Cf,{4},{16},,,{48},{4}C,
,C,
,C,,5x<5V31V75b[4:7],
,C,,C,
,C,,1-7>4[4:3],
,B7/B6/E7,,7x-1<5b[4:3],
,B2/B3/E3,,C,
{2}8h[4:1]/4h[4:1],1h[4:1]/5h[4:1],
{4}2h[2:1]/6h[2:1],,,6b/2b<6[4:1],
6<2[4:1],2<6[4:1],6<2[4:1],2>6[4:1],
6x<7>8>1>2>3<4<5<6b[2:1],C,8-4[8:1],8b,
{8}8/2,3,6/4,6/4,1/7,6,3/5,3/5,
2-5[8:1]/6-1[8:1],3/7,{4}2/6,{8}3-8[8:1]/7-4[8:1],2/6,{4}3b/7b>3[4:1],
3>7[4:1],7>3[4:1],3>7[4:1],7<3[4:1],
3>2<1<8<7<6>5>4>3b[2:1],C,1-5[8:1],1b,
{8}7-3[8:1]/8-4[8:1],1/6,{4}8/7,{8}1-5[8:1]/2-6[8:1],8/3,{4}1/2<7[8:1],
2/6>3[8:1],6/2,{8}E1,E5,E3,E7,
3-8[8:1],2/6,3/7<4[8:1],6,{4}1-5[8:1]/7>2[8:1],1/7,
{8}6-1[8:1],7/3,6/2>5[8:1],3,{4}8-4[8:1]/2<7[8:1],8/2,
{8}6/2-5[8:1],3,2/8-4[8:1],7,{4}8<5[8:1],{8}8/1,2-5[8:1]*-4[8:1],
,A2,,6-8[8:1]*-1[8:1],,A6,,C,
2-5[8:1],3/7,2/6<1[8:1],7,{4}4-8[8:1]/6>3[8:1],4/6,
{8}7-4[8:1],6/2,7/3>8[8:1],2,{4}5-1[8:1]/3<6[8:1],5/3,
{8}8/7,6,5/4,3,1/2,3,5/4,6/1,
,3h[8:15],,C,,E8,,E6,
{16},,,,,,,,,Ch[16:7],{1},{4},,,{8},{16}2-6[12:1]/7-3[12:1],
1,{8}8,{48}7b/2b,Cf,,,,,,,,,,,{8}8/2,
3,6/4,6/4,1/7,6,3/5,3/5,
2-5[8:1]/6-1[8:1],3/7,{4}2/6,{8}3-8[8:1]/7-4[8:1],2/6,{4}3b/7b>3[4:1],
3>7[4:1],7>3[4:1],3>7[4:1],7<3[4:1],
3>2<1<8<7<6>5>4>3b[2:1],C,1-5[8:1],1b,
{8}2-5[8:1],3,2/8>3[8:1],7,{4}6/8-4b[8:1],{8}8b/1,1,
,C,,B6/B5/E5/B4/B3/C/B7/B2,{16}1,8,2,7,3,6,4,5,
{8}2-5[8:1],1-6[8:1],2,1,{16}3,4,2,2,6,5,7,7,
1<6[8:1],2,3,4,{8}1/5-2[8:1]*-3[8:1],3,{4}5-7[8:1]*-8[8:1],5,
{8}8/2,{16}6,5,{8}7,3/4,1/7,{16}3,4,{8}2,6/5,
{16}3/7,2,1,8,7,6,5,4,{4}3-8[8:1]/7-4[8:1],3b/7b>3b[4:1],
{8}3b>7b[4:1],5x,7b>3b[4:1],5x,3b>7b[4:1],5x,{4}7b<3b[4:1],
3b>2<1<8<7<6>5>4>3b[2:1],C,1b-5[8:1],1b,
{1}C/7s3<3[4:7],
E
