&title=冥
&artist=Amuro vs Killer
&first=0.377
&lv_5=14
&des=Ella's Challenge
&des_5=Branch.
&inote_5=
(200){4},,,,,,,,5h[4:1],
{8}4,3h[4:1],,6,{4}8z4[4:3],
{8},,,,,,,,3,
4,5,6,5,4,{4}3,
,,,,3h[4:1],
{8}5,6h[4:1],,2,{4}1s5[4:3],
,,,,6h[4:1],
{8}4,3-7[8:1],,,{4}8z4[4:3],
,,,,5/6h[4:1],
{8}4,5/6h[4:1],,4,{4}5/6,
4/3h[4:1],{8}5,4/3h[4:1],,5,4/3,3,
{4}5/7h[4:1],{8}5,5/7h[4:1],,5,{4}7/4,
{16}4/2h[16:3],,,4,{8}3,4/2h[4:1],,4,2/5,3,
4/6,4,4,{16}6,4,,5,{8}3,3/4,3,
5/3,5,5,{16}3,5,,4,{8}6,5/7,7,
8/4,4/8,3/7,7/3,2/6,2/6,1pp4[4:3]/5pp8[4:3],1/5,
,,,,,,,,{4}8V64[4:1],
{8}2V86[4:1],2,,,{4}4,
8V24[4:1],{8}6V82[4:1],6,,,{4}5,
2V46[4:1],{8}8,8V24[4:1],,,{4}5,
7V53[4:1],{8}1,1V75[4:1],,,{4}4,
{8}3,3V58[4:1],8,8V26[4:1],,,{4}7,
{8}7,7V14[4:1],4,4V62[4:1],,,{4}3,
{8}3,3V58[4:1],8,8V26[4:1],,,{4}7,
{8}7,7V52[4:1],2,2V84[4:1],,,{4}3b,
2V48[4:1],8>5[4:1],{8}7,7,{4}7,
{16}6,,,6,{8}5,5,6/4,4,{4}5/3,
{16}3/5,,,4,{8}6,6,7/5,6/4,{4}3/5-1[4:1],
5>2[4:1],5<8[4:1],5,5,
7V51[4:1],1<4[4:1],{8}2,2,{4}2,
{16}3,,,3,{8}4,4,3/5,4/6,{4}5/7,
{8}8,8h[8:1],2,2h[8:1],6,6,{4}7-2[8:1]/3-6[8:1],
{1}3bV16[2:1]/7bV52[2:1],
{16}1,2,,8,{8}7,{16}3h[32:1],4,,6h[32:1],{8}5,{16}2h[32:1],3,,8h[32:1],
{8}1,{16}6h[32:1],7,,4h[32:1],{8}5,{16}1,2,3,4,7,5,{8}7,
{16}3,5,4,6,{8}5,{16}7,5,6,4,{8}5,{16}2,4,3,5,
{8}4,{16}7,5,6,4,{8}5,{16}2-6[8:1],3,5,4,{4}2,
{16}7,5,6,5,{8}6,{16}2,4,3,4,{8}3,{16}7,5,6,5,
{8}6,{16}2,4,3,5,{8}4,3v8[8:1]/5v8[8:1],5/3,,,7,
{16}1,2,3,,,5,,,{8}7,{16},1,,,2,
3,4,5,8,7,6,5,1,2,3,4,{4}5/8b,
8/2-6[8:1],2h[8:1],1/7-3[8:1],7h[8:1],
6/2-5[8:1],{16}2h[8:1],,,7,{8}4,7/4,{4}4/7,
{8}3-5[8:1],3,7-1[8:1],7,4-2[8:1],4,8,8,
{16}1<4[4:1],2,3,4,{4}1,{16}1,2,3,4,{8}8,8,
1v4[8:1]/7v4[8:1],1/7,{24},,,,,,2,3,4,5,,,7,6,5,4,,,1,
2,3,4,,,8,7,6,5,,,{4}2>5[8:1],6,
{8}7-4[8:1],6,,3-8[8:1],{4}2,{8}6-1[8:1],7,
,2-5[8:1],{4}3,{8}7,6,5,4,
(100)6b/3b,{16}5,4,,4,{8}5,{16}5,,,3,,,4,5,
,6,5,4,,4,{8}5,{16}3,4,,3,,4,5,4,
{8}6,{16}7,5,,2,{8}4,{16}1/7h[16:3],,,2,,,3,4,
,6,5,4,,4,{8}5,{16}3,5,,2,,3,4,5,
(110)3b/6b,5,4,4,6,4,5,5,4,6,4,4,5,4,5,5,
(120)3b/6b,5,4,4,5,3,4,4,2,5,5,1,5,5,2,6,
(130)7b/3b,6,5,5,6,4,4,5,4,6,6,3,7,7,2,8,
(140)1b,7,2,2,6,3,5,5,4,4,6,6,3,3,7,7,
(150){8}1b,{16}8,2,4,3,{8}4,1b/6b,{16}1,7,5,6,{8}5,
8b/3b,{16}1,2,4,3,{8}4,(160)2b/6b,{16}8,7,4,5,{8}2,
(170)3b/4b,5b/6b,,3b/4b,3b/4b,5b/6b,,3b/4b,
(180){4}1b/2b,8b/7b,3b/4b,5b/6b,
(190){16}2b,7,4b,7,2b,7,4b,7,2b,7,4b,7,2b,7,4b,7,
(200)1,7,2,7,3,7,4,7,1,7,2,7,3,7,{24}4,,7,
{32}4,5,6,7,8,1,2,3,4,5,6,7,8,1,2,3,7/4,6,5,4,3,2,1,8,7,6,5,4,3,2,1,8,
{8}3b/7b,{16},,,,6,5,{8}4,{16},,,,3,5,
{8}4,{16}6,5,4,3,2,1,{4}8/4,{8}3/7,2,
5/1,{16},,,,5,6,{8}7/4,{16},,,,2,3,
{8}4,5,7,1,3,5,6,5,
4b/3b,{16},,,,4,3,{2}2/5,
{8}7,{16}6,5,{8}6,{16}3,4,{8}3,5,{4}6/4,
{8}7,{16}2,1,2,1,3,8,4,7,5,6,4,5,3,6,
2,7,1,8,1,8,2,7,3,6,4,5,{4}4b,
{8}2/6,{16},,,,8,7,{8}6v8[8:1],{16}1,2,{4}3v1[4:1],
{16},,,,,,7,6,{8}5v7[8:1],{16}2,3,{4}4v2[8:1],
{8}8b,{16},,,,8-5[8:1],7,{8}6,{16}1-4[8:1],2,{4}3,
{16},,,,,,7,6,{4}5q2[4:1],{8}4,4,
{2}4b,{8}6-1[8:1],2-6[8:1],{4}6<4[4:1],
,,8/6,3/1,
{8}6h[8:1],{16}5,6,5,6,{8}3h[8:1],{16}7,3,7,3,{8}7h[8:1],{16}2,1,
2,1,{8}2h[8:1],{16}7V58[4:1],8,7,8,{4}7b,1,
{24}1,2,3,4h[8:1],,,{8}1,{24}1,2,3,{8}4h[8:1],1,{24}1,2,3,4,{48},,,,{16}6,
5,6,5,7,4,7,4,{8}5/7,6/4,{4}5/3,
{8}8/2-5[8:1],1,{4}2/1,{8}7v4[8:1],8,{4}7/1,
{8}2/5,3/6,{4}4b/7b,8b/4b,{8}6/3,5/2,
{2}4/1bV35[4:1],{8}6,6,7,7V13[4:1],
{16},,,,,,,5h[32:1],4,,,6,,,{8}7,
8V64[4:1],{16},,,,1,2,{8}3,3h[8:3],,,{2}1b,
{4}7,{8}3,6,
{1}5V38[4:5]/4V61[4:5],
{8},,,,,,,,6,
5,4,5,4,3,6,5,
(190)4,5,4,3,4,5,{4}6,
(180){8}5,6,5,4,(165)5,4,3,2,
(160){2}1,(110){4}8b,(120)7,
(90){16}4/5<4[0.6667##1.1818],,,4,,3,,(66)2,,8,{64},,,,8b,7,6,5,
E
&lv_6=14+
&des_6=Ella's Challenge
&inote_6=
(200){4},{8},,,,,,,,,,,,,,6,
4,2,5,7,3,8,5,
,,,,,,,,4,
7,5,1,4,7,3,5,
{16},,,,,,,,,,,,5,4,5,4,
{8}5,2,4,7,5,1,8,3,
,,,,,,,,4,
1,5,7,2,6,4,5,
,,,,,,,,6,
{16}6,5,{8}6,{16}6,5,6,5,{8}6,{16}6,5,{8}6,
3,{16}3,4,{8}3,{16}3,4,3,4,{8}3,{16}3,4,{8}3,
6,{16}6,7,{8}6,{16}6,7,6,7,{8}6,{16}6,7,{8}6,
{16}2,1,2,1,{8}2,{16}2,1,2,1,{8}2,{16}2,1,{8}2,
{16}7,8,7,8,{8}7,{16}7,6,7,6,{8}7,{16}7,8,{8}7,
{16}3,4,3,4,{8}3,{16}3,2,3,2,{8}3,{16}3,4,{8}3,
{16}6,5,6,5,6,4,6,4,5,4,5,4,5,3,5,3,
,,,,,,,,,,,,{4}5/4,
{8}7b/2b,{16}2,1,{8}2,2/7,{16}2,1,{8}2,{16}8,7,{8}6,
7/2,{16}7,8,{8}7,7/2,{16}7,8,{8}7,{16}1,2,{8}3,
6/3,{16}3,4,{8}3,6/3,{16}3,4,{8}3,4/5,5,
6/3,{16}6,5,{8}6,3/6,4/6,3,{4}5/4,
{16}3,4,3,2,{8}3,{16}3,4,3,2,{8}3,{16}5,4,5,4,
6,5,6,7,{8}6,{16}6,5,6,7,{8}6,{16}4,5,4,5,
3,4,2,4,{8}1,{16}3,4,2,4,{8}1,{16}5,4,5,4,
6,5,7,5,{8}8,{16}6,5,7,5,{8}8,{4}4b,
{8}2/7,{16}2,1,{8}2,2/7,{16}2,3,{8}2,{16}6,5,6,5,
{8}6,{16}7,8,{8}7,7/2,{16}7,6,{8}7,{16}3,4,3,4,
{8}3,{16}2,3,{8}2,2/7,{16}2,1,{8}2,{16}8,7,6,5,
{8}2,{16}7,6,{8}7,7/2,{16}7,8,{8}7,{4}5/1,
{16}2,4,2,4,2,4,3,4,5,6,7,8,{4}1/4,
{16}7,5,7,5,7,5,6,5,4,3,2,1,{4}8/5,
{16}2,4,2,5,3,5,4,6,{32}4,5,6,7,8,1,2,3,4,5,6,7,8,1,2,3,
{2}4/8b,1,
{16}2,4,2,7,5,7,3,4,3,7,6,7,4,5,4,7,
6,7,5,6,5,7,6,7,8,1,2,3,5,6,7,8,
2,3,6,5,1,2,3,4,7,6,3,4,8,7,6,5,
2,3,4,5,1,2,3,4,8,1,2,3,{4}7,
{16}7,5,7,2,4,2,6,5,6,2,4,2,8,7,6,5,
8,7,6,5,7,6,5,4,7,6,5,4,{4}3/8,
{8}7,{16}6,4,{8}6,3,{16}2,5,{8}2,{16}6,4,{8}6,
2,{16}6,4,{8}5,{16}4,5,3,5,{8}4,{4}7b,
{8}5/2,{24}2,3,4,{8}5/7,{24}7,6,5,{8}4/1,{24}1,2,3,{4}4/7,
{8}3/7,{16}5,4,{8}6,{16}3,4,3,2,{8}3,{4}5/4,
{8}2/5,3/6,4/7,3,2/8,8,7/1,7,
{16}2/6,3,4,5,1,2,3,4,8,1,2,3,{4}7/4,
{8}4/7,{24}7,6,5,{8}4/2,{24}2,3,4,{8}5/8,{24}8,7,6,{4}5/2,
{16}1,8,7,6,8,7,6,5,7,6,5,4,{4}3/8,
{8}8/3,2/1,2,1/6,7/8,7,4/7,{16}5,6,
{8}5,5/2,{16}4,3,{8}4,2,8/7,1/2,6/5,
(100){1}4b/3b,
5,
{2}5/4,3,
5/4,6,
(110){4}5b/4b,6,5,4,
(120)5b/4b,3,4,5,
(130)4b/5b,6,5,4,
(140)5b/4b,3,4,5,
(150){8}5b/4b,{16}6,4,,4,{8}6,5b/4b,{16}3,5,,5,{8}3,
5b/4b,{16}7,5,,5,{8}7,(160)5b/4b,{16}2,4,,4,{8}2,
(170){16}6b,4,5b,3,5,4,6b,4,5b,3,5b,4,5,4,{8}6b,
(180){16}3b,5,4,5,2b,5,4,5,1b,5,4,5,8b,5,4,5,
(190)7b,5,6b,5,4b,5,3b,5,2b,5,1b,5,8b,5,7b,5,
(200)6,5,6,5,6,5,6,5,6,5,6,5,6,5,6,5,
{32}6,7,8,1,2,3,4,5,6,7,8,1,2,3,4,5,{24}6,7,8,1,2,3,{4}8b/4,
{8}7/3,{24}6,5,4,3,2,1,8,7,6,{4}5/1,{8}3/7,6,
4/7,{16}6,5,6,4,6,5,{8}6,5,7/4,3,
2/5,{24}3,4,5,6,7,8,1,2,3,{4}4/8,{8}6/3,4,
5/6,4,6/5,5/7,4/3,2/4,5,2,
7/4,{24}6,5,4,3,2,1,8,7,6,{4}5/1,{8}3/6,4,
4/7,{24}7,6,5,{8}4/2,{24}2,3,4,{8}5/8,{24}8,7,6,{4}5/2,
{8}5,{16}3,4,2,4,3,4,2,5,3,5,3,5,2,6,
3,6,3,6,1,5,2,6,3,7,4,8,{32}4,5,6,7,8,1,2,3,
{8}4/8b,{16},,,,7,6,{8}5/4,{16}2,3,{8}4/5,8,
{4}1/6,{8}2,{16}7,6,{8}5/8,{16}7,6,{8}5/8,7,
{4}6/2,{8}1/7,{16}2,3,{8}4/1,{16}2,3,{8}4/1,2,
{4}3/7,{8}8/2,{16}7,6,{8}5/1,2,3/5,6,
8/7,5,1/2,4,7/6,5,2/4,3,
6/4,5,1/2,4,{32}5,4,3,2,1,8,7,6,{4}5,
{16}3,4,3,4,5,4,5,4,3,4,3,4,5,4,5,4,
3,4,2,5,1,6,8,7,{2}2b,
{16}2,5,4,5,6,5,2,5,4,5,6,5,2,4,2,4,
2,3,2,1,3,8,4,7,5,6,4,7,{8}3,8,
1/2,3,4/5,6,5/7,6/4,4/2,1,
8/7,7/5,{4}2b/6,8b/4,{8}8/5,6/5,
{2}2/4,{8}6,5/7,4/8,3/1,
{32}2,,,,,,,,,,,,,,,5,{16}3,,,4,,,{8}5,
4/6,{16},,,,7,6,{8}5,1,{48},,,,,,,,,,,,3,
4,{24}5,,,,,,,,,,,{4}6,{8}4,5,
{1}6>3[2:3],
{8},,,,,,,,6,
5,4,5,4,3,6,5,
(190)3,6,4,3,4,5,{4}6,
(180){8}5,6,5,4,(165)3,2,3,4,
(160){2}5,(110){64}5,6,,,,,,,,,,,,,,,(120){4}7,
(90){8}1b,{16}2,3,,4,,(66)5,,6,{64},,,,6b,5,4,3,
E
