&title=私論理 (Kobaryo's FTN-Remix)
&artist=神椿市協奏中。
&first=0.2
&des_5=蓝色大蟑螂
&lv_5=14
&des=蓝色大蟑螂
&inote_5=(161)
{4},,,,
{4}6xb<8q4[8:12]`3xb>1p5[8:12],,,,
{4},,,,
{4}7p6>3[8:10]/2h[4:1],,1h[4:1],,
{4}2h[4:1],,E1,E2,
{8}3,45,6,78,1-5[8:1],{16},8,{8}1,6,
{8},4,{16}6/4,6,{8},4-1[8:1],,45,,
{8}6,54,3,21,8-4[8:1],{16},1,{8}8,3,
{8},5,{16}2/4,2,{8},4<7[8:1],,34,,
{8}3,45,6,78,1>4[8:1],{16},8,{8}1,7-4[8:1],
{8},7,{16}2-5[8:1],2,{8},6,,4,,
{8}6,45,3,12,8<5[8:1],{16},1,{8}8,2V48[8:2],
{8},1,{16}8v5[16:2]*v3[8:1],,{8},,,Ch[16:1]/B1/B5,,
{8}3hbx[8:1],,3h[8:1],,3h[8:1],,3h[8:1],,
{8}3h[8:1]/5,,3h[8:1]/4,,3h[8:1]/2,,3h[8:1]/1,,
{8}8h[8:1]/3,,8h[8:1]/4,,8h[8:1]/5,,8h[8:1]/6,,
{8}8h[8:1]/7,,8h[8:1]/1,,18,A6/A7/D7/D8/D6,A3/A2/D3/D2/D4,,
{8}6,4h[8:1],5,4h[8:1],3,4h[8:1],2,4h[8:1],
{8}1,4h[8:1],8,4h[8:1],7,4h[8:1],6-8[8:1],5,
{8}4-6[8:1],3,2-4[8:1],1,8-2[8:1],7,6V85[8:2],5,
{8}4,3v1[8:1],,3V58[8:2],,,,,
{16}3,6,2,5,3h[8:1],,5,4h[8:1],,6,5h[8:1],,7,6h[8:1],,8,
{16}5,7,4,6,3,5,2,4h[16:5],,,,,2,7,4,6,
{16}2,7,4,6,3,5,2,7,1,8,4,6,2b,,2b,,
{16}7,3,6,5,7,3,6,5,8,2,A6/A7/D7/D8/D6,,A3/A2/D3/D2/D4,,,,
{16}8>3[8:1],,4,,8<5[8:1],,4,,8,,3,3,,,6,,
{16}4-8[8:1]/5,,3,,2-5[8:1],,1,,2,,,,6-2[8:1]/2,3,4,5,
{16}6/7,,,,1/5-1[8:1],2,3,4,5/8,7,6,5,{16}4/8-4[8:1],1,2,3,
{16}8b/4,,,,6,5,6,,37,,4,5,4w8b[8:1],,,,
{12}4bp5q4[8:20]`Cf,,,,,,,,,,,,
{12},,,,,,,,,,,,
{12},,,,,,,,,,,,
{16}1,,,,2,,,,3,,5b/4b,,2b/7b,,,,
{16}1xq5b[8:1]/2x>5b[8:1],,,,1b/2b,,,,1q5b[8:1]/2>5b[8:1],,,,1b/2b<7[8:1],,,,
{16}6>3[8:1]/2,,,,6/2-5[8:1],,1,,8-4[8:1]/2,,7,,8<5[8:1]/1p5b[8:1],,,,
{16}1b>4[8:1]/8bq4b[8:1],,,,1b-5[8:1]/8b,,,,1/6-1[8:1],,7,,6/2,,3-8[8:1],,
{16}4-7[8:1],,3,,4>7[16:3],,,,4/5,,,,{32}E5,E4,E3,E2,E1,E8,E7,E6,
{16}5x-1b[8:1]/4x-2b[8:1],,,,5b/4b,,,,5-1b[8:1]/4-2b[8:1],,,,5b<8[8:1]/4b,,,,
{16}2x-6[8:1]/5,,,,7/2,,8v5[8:1]*v3[8:1],,,,8,,,,1-5[8:1]/6v8b[8:1],,
{16}7b,,,,,,1-5b[8:1]/4v2[8:1],,3b,,,,,,16,,
{16}7/8-4[8:1],,,1,8,,2,,3-8[8:1]/5,,4,,3,,5,,
{16}2bx/4bx,,1b/7b,,5b/6b,,8b/3b,,2bv5b[8:1]/6b-1b[8:1],,4b/8b,,2bx/6bx,,,,
{16}3bx/4bx,,1b/2b,,4b/5b,,1b/8b,,5b-1b[8:1]/6b-1b[8:1],,7b/8b,,5bx/6bx,,,,
{16}3bx/7bx,,5b/6b,,1b/8b,,3b/4b,,6b-8>1b[8:1]/2b-7b[8:1],,4b/5b,,6bx/2bx,,,,
{16}3bxh[8:1],,5b,4b,6b,3b,7b,,2hb[8:1]/8hb[8:1],,,,3b/7b,,4b/6b,,
{16}5bx-8[8:1]*-2[8:1],,,,5x,,,,5-8[8:1]*-2[8:1],,,,5x,,,,
{16}4/6,,3,,27,,8,,2,1,,3,4,,{32}3x,4x,3x,4x,
{32}2hx[32:16],,,,,,,,,,,,,,,,,,,,,,,,,,,,3h[8:7],,,,
{16}B4/E5,,,,B6/E7,,,,B2/E3,,,,E8/B8,,,,
{16}1b/2b,,E4,,E5,,E6,,{12}8b/7bh[8:2],,,6hxb[12:2],,5hxb[12:2],
{12},4hxb[12:2],,3hbx[12:2],,2hbx[12:2],,1xbh[12:2],,8hbx[12:2],,7xbh[12:1],
{12}6xbh[12:1],7hbx[12:2],,6xhb[12:2],,5hbx[12:2],,4xbh[12:2],,3xbh[12:2],,2hbx[12:1],
{12}1hbx[12:1],8xbh[12:1],7xbh[12:1],6xbh[12:1],5xbh[12:1],4xbh[12:1],{24}3xhb[24:1],2hbx[24:1],1hxb[24:1],8hbx[24:1],7bhx[24:1],6bhx[24:1],Ch[24:1]/B1/B5,,,,,,
{16}7b/3b,,,,2,5,3h[8:1],,7h[8:1],,4,6h[8:1],,3,4,2,
{16}7xbh[8:2],,,,4,6h[8:1],,3,5,2,7,4,E6/B5/B6,,B2/E3/B3,,
{16}E8/B8/B7,,,,2,6,4,5,3,7,1,8,2,6,3,4,
{16}2h[16:3],,,5,3h[16:2],,6h[16:2],,4>2[8:1],5,4-8[8:1],5,4,,,,
{16}1hxb[8:1],,7,8,6,,25,,3/4h[16:3],,,8,,,6,1,
{16}5,2,5,2,4<7<4b[16:5],3q8p3b[16:4],4,3,,,,,,,,,
{16}2xh[16:2],,5,3,7h[16:2],,4,6,2hb[16:2],,8hb[16:2],,2,7,4,6,
{16}3,8,5,6,4,7,3,8,{32}2bxw6b[8:1],,,,{16},,2b,,,,
{16}3,5,2,2,,7,5,6,4,5,3,4,1h[8:2],,,,
{32}7xbh[8:1],,,,{16}2,2,6h[8:1],,3h[8:1],,{32}5,6,7h[16:3],,E5,E4,E3,E2,E1f,,{16},,,
{16}2,6,4,5,1h[8:1],,4,2,5,3,6,4,7,5,8h[8:1],,
{16}5,7,4,6,3,5,2,4,1-5[8:1],5,3,7,1b,,,,
{16}6b,5,6,,46,,35,,3b,4,3,,35,,27,,
{16}1b,,2,8,3,7,4,6,{32}E2/A2/E4/A3/B2/E3/B3,,,,{16},,6x,5x,7,7,
{16}3b,5,3,5,1b,7,2,6,3b,4,3,4,8b,7,1,6,
{16}2b,4,2,4,8b,7,{24}1b,2,3,5b,6,7,2b,3,4,{24}6bx-2[12:1],7,8,3bx/1xb,4,5,
{16}6bx,,,,,,,,,,,,,,,,
{16}E7,,,,E3,,,,E7,,,,E3,,,,
{16}E7,E8,E1,E2,E3,E4,E5,E6,E7,E8,E1,E2,E3,E4,E5,E6,
{16}1,,,,2,,,,3,,2b/5b,,4b/7b,,,,
{16}5w1b[8:6],,,,,,,,,,,,,,,,
{32},,,,,,,,7/2,,,,1,2,3,4,5,,,,8,7,6,5,4,,,,,,,,
{16}5xb/4xb,,5xb/4xb,,4xb/3xb,,4xb/3xb,,3xb/2xb,,2xb/1xb,,1xb/8xb,,8xb/7xb,,
{16}6xb/5xb,,2xb/8xb,,3xb/4xb,,1xb/7xb,,3xb/5xb,,4xb/7xb,,2xb/6xb,,{32}3xb/8xb,,,,
{16}2>5b[8:1]/7,,7,,6/2b,,6,,7/1q5b[8:1],,7,,8/1b,,6b,,
{16}8b/2b,,,,3x<7[32:3],,2/5h[8:2],,,,{32}8xb,1,2,3,{16}4,,6>2[32:3],,
{16}7/4h[8:2],,,,{32}1xb,8,7,6,{16}5>1[32:3],,2h[8:2],,,,{32}8xb,7,6,5,8,7,6,5,
{16}4-6-3-7-2-8b[8:4],,,,,,,,,,,,,,,,
{16}2,2,4,4,5,5,7,,1b,,2b/8b,2b/8b,,,8hb[8:1],,
{16}2hb[8:1],,7,7,3,3,5,,2b/4b<8[32:3],,3b/5b,,4xb/6bxh[8:1],,{32}1xb,2,3,4,
{16}5,,7,,6,,5,,4,,6>2[32:3],,4h[8:2],,6x,,
{32}1xb,8,7,6,{16}5,,3,,2,,1v6[8:1],,2-5[8:1],,1,,2,,
{16}7b,7b,3b,3b,5b,5b,{32}8,1,{16}2,6b,6b,3b,3b,{32}8,7,6,,4,3,2,,
{32}8b,7,6,5,4,,,,1b/4b,2/5,3/6,4/7,8/5,,,,8b/5b,74,63,52,4/1h[8:1],,,,{32}4b-8b[12:1],5x,6b,7x,1b,2x,3b,4x,
{16}Cf,,,,,,,,,,,,,,Ch[8:7],,
{8}B8,,B1,,E8,,E2,,
{8}8x/2x,,7,8,1q5b[8:1]/2>5b[8:1],,1b/2b,,
{8}1q5b[8:1]/2>5b[8:1],,1b/2b<7[8:1],,1xv6[8:1]*-4[8:1],,1qq7v5[8:3],,
{8}2x,,2x,,1q5b[8:1]/2>5b[8:1],,1b/2b,,
{8}4x-8b[8:1]/5x-7b[8:1],,4/5>2[8:1],,4x-7[8:1]*v1[8:1],,4x,,
{8}4b-8b[8:1]/3b,,B1f,,3bv1b[8:1]/4b,,B8f,,
{8}4b-8b[8:1]/3b,,B1f,,3b-8b[8:1]/4b,,B8f,,
{8}4b-8>1b[8:1]/3b,,B1f,,4bv2b[8:1]/3b,,B2f,,
{8}4bpp4b[16:3]*qq4b[16:3],,B4f,,{16}Ch[16:1],B1/B8/E1,,Ch[16:1],B4/B5/E5,,
E
