&title=BMS:不為所動 做更専業的自己
&artist=nidhog+Zris+Cook1e丶+Colorful Train (テレビBMS放送局)
&first=0
&des=Noel
&lv_5=12
&inote_5=(130){1},
{16}2,,3,,4,,5,,6,,7,,3,,4,,5,,6,,7,,8,,1,,2,,56,56,56,,
{32}7-3b[32:15],,,,,,,,E3,,,,,E2,,,,,E1,,,,,E8,,,,,,,,,,,,,,,,2b-7[32:5],,,,,7b-4[32:5],,,,,4b-1[32:5],,,,,
{4}1b<3-8-5-2b[2:1],,,,
{32},,6hx[32:15],,,,,,7b,,,8b,,,1b,,,2b,,,,,,,2,,,,,6,,,,,,4w8[8:1]/8,,,,4/8w4[8:1],,,,,,,,,,,,,,,,,,,,6h[32:5],,,,,7,,,,7h[8:1],,,,8,,,,,8h[32:25],,,,,1<6[8:3],,,,1,,,,,,,,,,,,,,,,,,,,,,,,7h[32:37],,,,,1,,,,1,,,,,,,2,,,,2,,,,B8/B7,,,,B4/E5,,,,B1/B2/B3/B8,,,,,
{16}B5/B4/B6/B7,,,,,,,,,,,,
{32},,1,,,,,,,2x,3x,4x,5x,6x,7x,,8,,,,17,,,,2>6[32:12]/6,,,,,,,,,,,,,,,,,,8,,,,8,,,,7,,,,,,6,,,,6,,,,5,,,,2-6[32:12],,,,2,,,,,1b,,,,,4b,,,,8b,,,,5b,,,,7b,,,,,,,,,,,,,,,,,,,,,,,,,,,,,,,,,,,,,,,,,,,E8/E6/E2/E4/B6/B7/C,,,,,E8/E6/E2/E4/B2/B3/C/B6/B7,,,,,
{4}E2/E1/E8/C/E4/E5/E6,,
{32},,,,,,,1,,,,,2-6[8:1],,,,8-4[8:1],,,,2,,,,8,,,,,,,,3>8v2[4:1]/8,,,,38,,,,,7,,,,,6p4[4:1],,,,6,,,,,,,,,,,,,,,,1,,,,,2,,,,2,,,,3,,,,3,,,,,,,,,,,2b/3b,,,,,,4b/5b,,,,,,,6b/7b,,,,,,,8b/1b,,,,,,,,,,,
{2},,
{32},,,,,,,1,,1,,,,,8,,,,7,,,,7,,,,,,4x-1[8:1],,,,4x-7[8:1],,,,4x,,,,4x,,,,,,,,,,,,,,,,,,6,,,6,,,5h[8:1],,,,4h[16:3],,,,,,3h[8:1],,,,2h[32:5],,,,,1h[32:3],,,8h[32:3],,,7,,,,,,,,,,,,,,,,,,,,,37,,46,,5-8b[4:1],,,,,,E2,,,,B2,,,,B3,,,,E4,,,,,,,,,,,81,,,,,,81,,,,,,,8qq6qq4[1:1]/1pp3pp5[1:1],,,,81,,,
{1},
{32},,,,,,,,,,,,,,,,,,1h[16:3],,,,,,3h[16:5],,,,,,4p8[8:1],,,,4,,,,,,,,,,,,,,8h[16:3],,,,,,6h[16:5],,,,,,5-3-7-5-1[2:1],,,,5,,,,,,,,,,,,,,,,,,,,2bx,,,,,3bx,,,,,4bxh[128:1],,,,4bxh[128:1],,,,,,,,,,,,,,,,,E8f,,,,,,,,E4f,,,,,,,,E6f,,,,,,,,E2f,,,,,,,,,
{4},,
{32},,,,E8/E7/E1,,,,C/E2/E6,,,,E3/E4/E5,,,,,,,,,,,,,,,,,,,,,,,,1b-5b[8:1],,,,8b-4b[8:1],,,,1b,Cf,,,8b,Cf,,,,,,,,,,,3b,,,,,,,,2b-6b[8:1],,,,6b-2b[8:1],,,,2b,,,,7b,,,,,,8b/E4f,,,,8b/Cf,,
