&title=インフェリア
&artist=SHIYUI
&first=0
&des=柊
&lv_1=13+
&inote_1=(134)
{8},{128},,,,,,,,,,,,,,,
{2}4h[4:1]/6>2[2:1],2-8-6[2:1],4h[2:1],
{8}6h[4:1],{32},,2,3,4>2[8:1]*<6[8:1],,,,{8},4,,B6,4,4h[4:1],,B3,1h[4:1],,7,B2,6,6h[4:1],,C,5,3-1[8:1],,B5,7,7h[4:1],,E2,8<6[8:1],,8,C,B3,6,B1/B2/E2,B1/B2/E2,,
{4}5xpp5[4:1],5xqq5[4:1]/6x,5xpp5[4:1],5xqq5[4:1],1,8,{64}7h[4:1],,,,,,,,,,,,,,,,,E2/E7,B6/B2,B5/B3,E5/E4,,,,,,,,,,,,
{16}4/5,,,4h[4:1],5,,,5,4h[4:1],,,,5,,,2,1-3[8:1]/3,,,,1-7[8:1]/8,,,,{64}1/2pp5[16:5],,,,,,,,,,,,,,,,1x,E1,B8,B7,E7,,,,,,,,,,,,
{4}7,8/1,8/7
,{16}8/1>4[8:1],,,7,1<6[8:1],,,,1>4[8:1]/2,,,,{64}1/8,A8,D8,A7,D7,A6,D6,A5,,,,,,,,,
{16}C/3-6[8:1],,,,3/7-2[8:1],,,3,7/3-8[8:1],,,3,3/6-3[8:1],,,,6/2-7[8:1],,,2,2b/6-1[8:1],,,6,6/3,,2,3,
{8}4,7,6,1,1/5,
{8}2pp5[4:1],5,6,7,8qq5[4:1],1,2,3,3,2>4[8:1],1-5[8:1],2-6[8:1],1<7[8:1],2,1,,
{8}3/4,1,6/5,
{8}7/3,1,5/6,1,5/6,2,5/6,2,5/6,1pp7[4:1],5/6,7>4[4:1],,
{8}5h[8:1],,6h[8:1],,7p3[8:1],,7/8,,
{8}1h[8:1]/5h[16:1],,2h[8:1]/6h[16:1],,5h[8:1]/1h[16:1],,2h[16:1]/6h[8:1],
{16}2-5[8:1],,,,8>3[8:1]/2,,,7,8-4[8:1],,,,2-6[8:1]/8,,,,2/4-8[8:1],,,,4/5w1[8:1],,,,5,,,,
{12}6bh[8:1]/3b,,,2/5,3,4,5/3>8>3[8:3],4,5,6b/3b,,,,,,
{12}6/1,7,8,1/7<2[4:1],8,1,{16}2b/7b,,,1,1,,,8,
{12}8/3,2,1,8/2,1,8,2b/7bpp5[4:1],,,
{16}4x,3x,2x,,{12}2>5[8:1],,7,2<7[8:1],,6-8-4[12:5],2,,,
{12}1h[2:1],,,,,,
{16}8h[8:1],,7h[8:1],,6h[8:1],,5pp8[8:3],,4,,4>1[8:1],,,,,,,,,,1pp4[8:3],,,,
{16}7h[4:1],,,,,,6,,2,3,4/5,,7/8,,6,,{32}1,2,3,4,5/1,6,7,8,1/5,2,3,4,5/1,6,7,8,1b>4[8:1]b/5b<8[8:1]b,,,,{16}2/6,,1b/5b,,,,
(67)
{16}Cf/B7/B6/B2/B3/B1/B4/B5/B8,,8p6[8:1]/1,2,6q4[32:3]/4,3,2x,{32}1x,2,{16}3xpp6[8:2],,2,,3/6q3[8:1],,7h[16:1],,8h[8:1],,,C/B3/E4,7/2,{32}8x,7,6xpp8[16:1],,,,6xqq4[16:1],,,,6,,,,6,,5,,6x/3x,5/2,4x/1x,,8xb>3[16:1]/3xb<6[16:1],,,,
{32}1v7[16:1]/4v7[16:1],,,,8/3,,,,4/1,,,A7,2qq5[8:1],,,4,3,,3,4,2/5pp2[8:1]b,,,4x,4x,,6,,5/3>7[8:1],,4,,,,5b,,6b<2[8:1]b/3b,,,,5,,4,,6xb/3xb,,B3,B4,B5,,B1,B8,B7/4pp3[8:1],,5/6,,7/8,,1/2,,4b/3b,,
{32}B2f,E2,1xq3[8:1],,,,7<3[16:1]/5,,2,8,1-5-7[8:1]b,,,,7-3[16:1]b,,,,1/8,,,,2-4-6[8:1],,,,6-3[16:1],,,,2/8,,,,,,
{32}8xpp4[4:1],7x,6x,,1/2,,,,4-6-8[8:1]/8,,,,8>2>4[8:1],,,,,,,,,,,,1,,1,,
{32}B7,E7,1x-6-4[8:1]b,,,,4v7[32:3]b/7,,8,3,1x/2x-6[16:1],,,,8-3[16:1],,,,2>8[8:1],,,,1/8-6-4-2[8:1],,,,1/2,,,,5,,,,
{32}1xqq5[4:1],,3x,,8/7,,,,5-3-1[8:1]/1,,6h[8:1],,,,,,,,7h[16:1],,,,8h[16:1],,{32}1,2,3,4,5/1,8,7,6,5/1>7[8:1],,,,
{32}7-5-2[32:3]/5,,,,1/5q1[16:1]b,,,,1>4-2-5[16:3],,,,5,,,,1/7-3-1[8:1]b,,,,1<5[8:1]b,,,,7/2,,,,4b,,,,,,
{32}2,3,4,,6,,7/5h[16:1],,8,,
(134)
{16}1/3h[16:3],,,1,2,,2,,7<4[8:1],,,,1/7,,,1,3<6[8:1],,,1,3,,,1,7>3[4:1],,,,3<7[4:1],,,,
{16}8,,,,2>5[8:1],,,8,2<7[8:1],,,6,2,,,5,5q1[8:1],,,4,5,,,,3<7[4:1],,,,
{16}7>3[4:1],,,,5,,,6,6,,,,1h[4:1]/8,,,,7-4[8:1],,,2,2,,,1,7-5-3[4:1],,,,7/3-6[16:3],,,,,,,,
{16}4h[16:3],,,6,5h[16:3],,,4,5h[16:7],,,6b,,,,4,3h[16:3],,,4,2,,,5h[8:3],2>7[8:3],,,,,,,,,,,,
{16}8/Cf,,,8,1,,,4/5,B6,,,4,5,,,B2/E3,E7B6,,4,5,E3/B3,,,E8,E7,E6,E5,E4,E3,E2,,4,3/5,,5,4,E8/B7/B8,,,3,4,,,4,B3/B2/E3,,E6,B3/B4/E4,7x<4[8:1],,,2-5[8:1],7,,,,8-4[8:1],,,,2,,,,
{16}5-1[8:1],4,6,3,5-3-7[16:3],,,,5b/8b,,8b-4[8:1],,,,,,3p6[8:1],3,5,5,3p1[4:1]b,,,,4b,,4bp6[8:1],,,,,,{12}2,2,5,{16}5,3,4,3,5,5,
{24}1,2,3,5bh,1,8,7,6,5,4b/8,7,6,5,4,3,
{32}2b/5,4,3,2,1,8,7,6,5,4,3,2,8,7,6,5,
(67){128}4hx[8:1]/2x<5[8:1],E3,B3,B4f,{32},,,3,,,3,2-5[16:1],
{32},,,4v7[32:2],,,1,2-8[16:1],,,,4/3,,,,2,,7qq4[8:1],,6,,5,,,,7/8,,8,,1,2,3p6[16:1],,,,5q3[16:1],,,,3/6,,,,5/4p5[32:3],,4,,1,3,8,,4/6-1-3-8[8:1],,,,
{32}7,,,,6/4,,,5,5-7-3[32:3],,,,1-5-3[32:3]/8,,,3>6[32:4],5,,,,1,,,,{32}6<3[8:1],,,,5,,,{64},,6pp4[8:1]/4bh[64:1],,,,,,,5hb[64:1],{32},,,,
{32}3qq4[32:5],,,,2,,2,,,,8-4[16:3],,,,7b,,2b,,6b,,3b,,,,
(134)
{8}5q2[4:1],,3,4,5q3[4:1],,7,6,5p7[4:1],,3,4,5p8[4:1],,7,6,5pp2[2:1],,3,4,5,,5qq8[2:1],4,6,,7,6,5-8[8:1],4,3,2,
{16}5/6,,,,4/2,,3,4,2/5,,,,1/8,,,,7/5,,,,1/5,2,3,4,5/6,,,,7<4[4:1]/1,,,,2,,,,3,,5,,2/6,,,,4/5,,,,7/3,,6x,,5/1,,6x,,7/3,,4x,,5/8,,4x,,
{16}7/3,,
{8}2pp5[2:1],1,8,E8/B7/B8,,6-1[8:1],,B4/B3/E4,,5qq2[2:1],,7x,1-6[8:1],,1,,4,
{8}7qq4[2:1],8,E2/B2/B1,,3-8[8:1],,3,,4pp7[2:1],,2x,,8-3[8:1],8,8b,,
{24}5-1[8:1],,3/4,,4,,6/5-3[12:1],,,,,,5-7[12:1],,6,,7,,5,,,,,,8,,3,4,5,,7,,8,,8,7<3[24:7],,,1,8,,,3q8[6:1],,,,,,
{24}2,,2,,2,,2,,7,6,5,,3,,7/5,,5,,5/7,,7,6,5,,2,,6,5,4,,2,,2,,2/5,,5q7[4:1],,6,,,6,5>7[2:1],,,,,,
{8},,7>3[4:1],,3>7[4:1],,7>3[4:1],,3>7[4:1],,7>3[4:1],,3>7[4:1],,,,
{8}4xqq4[4:1],,4xpp4[4:1],,4xqq4[4:1],,4xpp4[4:1],,4xqq4[4:1],,4xpp4[4:1],,4xqq4[4:1],,
{8}7,,7<4[4:1],,
{64}E1,B1,B2,E3,,,,,,,,,,,,,E2,B2,B3,E4,,,,,,,,,,,,,2x/E1,B8,B7,E7,,,,,,,,,,,,,1x/E8,B7,B6,E6,,,,,,,,,,,,,6x/E3,B3,B4,E5,,,,,,,,,,,,,7x/E4,B4,B5,E6,,,,,,,,,,,,,
{8}2>5[4:1]/7,7,7,7,7,7,
{24}7,5,7,5,7,5,7,4,7,4,7,3,7,3,7,2,7,2,
{48}7,6,5,4,3,2,1,8,7,6,5,4,3,2,1,8,7,6,5,4,3,2,1,8,7/Chf[1:1],,,,,,,,,,,,,,,,,,,,,,,,,,,,,,,,,,,,,,,,,,,,,,,,
(67)
{32}2-5-7[8:1],,,,1-5[16:1]/7v4[16:1],,,1,2,,8,,1-3-8[8:1],,,,1/7-4-6[8:1],,,6,1,,,,7-3[16:1],,,,8,,1,1,7pp4[4:1],,,,2,,6,5,7,,,,
{32}5pp4[8:1],,,,3,,3qq1[32:3],,,,2,,,,6,,6-8-4[8:1],,,,
{9999}4x-8[16:1],2x-6[16:1]*-6[16:1],{32},,,,6,,,,2>2[8:1],,,,5qq8[32:5]/4,,,6,2,,,,5,,,,3-1-5[8:1],,,,4-8-6[8:1]b,,6,,3b,,,,4b,,,,
{32}4x,3x,2-6[16:1],,7b/8b,,7b/8b,,,,1b/2b,,1qq5[8:1]b,,8bx/7bx,,6xb/5xb,,4xb/3xb,,1xb/2xb,,
{32}B3f,E3,2x-8-6[8:1],,,,6v1[32:3],,3,4,2,,,,
{32}4-6-8[8:1],,,,8v5[32:3],,,,4/3-1-5[8:1]b,,,,5-2[16:1]b,,,,3/4pp3[8:1],,,,{32},,6,,7/4,,,,7pp6[8:1],,,,6/7,,5qq3<4-6[32:4]b,,,,4,,,,5/4,,,,2,,1-4[16:1],,
{32}6x,5x,4xpp2[8:1],,,,1,,6,6,4x-2-8[8:1]b,,,,8v3[32:3]b,,,,6-8-5[8:1]/4,,,,5v2[32:4],,,,6/2<5[32:5],,,,4,,,,
{16},3,2,1,8/7,6,5/4,1/2,
{32}3,4,5,6,7,8,1-5[16:1],,7qq4[16:3],,,,8,,1,,,,
{16}4,3,2,1/8,7,6/5,
{32}4,3,2,1,
{16}8/7-3[16:1],8-4[16:1],1-5[16:1],2-6[16:1],7bx,8bx,1bx,2bx,,
{16}4/5,B1/E2f/B2,3/4,E7f/B6/B7,5/4,E8f/B8/B7,6/5,E3f/B2/B3,7/8,E5f/B4/B5,1/8,E6f/B5/B6,1/2,E5f/B4/B5,
{16}7b/8b,,6,,7/C,,4,4,C,,6,5,C,
