&title=Silent Rush
&artist=Soleily
&first=-1.03
&des=不会写trance
&clock_count=4
&lv_5=14
&des_5=さや
&inote_5=
(158){4},,,,6h[8:1]/5-3[8:1],
6h[8:1],6h[8:1]/5-3[8:1],6h[8:1],
5h[8:1]/2-4[8:1],5h[8:1],5h[8:1]/2-4[8:1],5h[8:1],
3h[8:1]/4-6[8:1],3h[8:1],3h[8:1]/4-6[8:1],3h[8:1],
4h[8:1]/7-5[8:1],4h[8:1],6h[8:1]/5-3[8:1],6h[8:1],
7/4h[8:1],6/4h[8:1],{8}2/5h[8:1],3,{4}4/5h[8:1],
7/4h[8:1],6/4h[8:1],{8}2/5h[8:1],3,{4}4/6h[8:1],
2/5h[8:1],3/5h[8:1],{8}7/4h[8:1],6,5/2h[8:1],4,
3/5,{16}6,5,{8}6,{16}3,4,{32}2,1,8,7,6,5,4,3,{16}2/8,8,,3,
{8}7b/3b,{16}6,5,{8}6,{16}3,4,{8}3,{16}7,7,{8}5,{16}3,4,
{8}3,{16}4,5,{8}4,{16}6,5,{8}6,{16}2,2,{8}4,{16}3,4,
{8}3,{16}6,5,{8}6,{16}3,4,{8}3,{16}7,7,{8}5,{16}3,4,
{8}3,{16}6,5,{8}6,{16}5,4,{8}5,{16}2,2,{8}4,{16}5,4,
7b,5,6,5,6,5,6,5,7,5,6,5,6,5,7,7,
2b,4,3,4,3,4,3,4,2,4,3,4,3,4,2,2,
8,1,8,1,7,2,7,3,6,1,6,2,5,1,5,2,
{8}7b,{16}3,4,2b,2,,4/7,,7b,8,6,1>6[4:1],1,{8}7,
{4}6bp1[4:1],1>6[4:1],{8}7,6,8,7,
{4}1h[8:1]/6-4[8:1],{8}6,2,{4}8h[8:1]/3-5[8:1],{8}3,7,
7/5,{16}4,5,{8}3,4/2h[8:3],8,7,6,3/7,
1/7h[8:3],2,3,4,5/7,6,4/2,3,
{4}5b/7>5[4:1],{8}3,3-8[8:1],,7,{4}7-3[8:1],
1b-5[8:1],{8}8,8-4[8:1],,2,{4}3<6[8:1],
7b-3[8:1],{8}2,2b<7[8:1],,4b>5[2:1],,1h[8:3],
,,,2,3,4,8<3[4:1],2,
{4}3bq8[4:1],8<3[4:1],{8}2,3,1,2,
{4}3h[8:1]/8-6[8:1],4h[8:1],5h[8:1]/1-3[8:1],6h[8:1],
{8}7/4,{16}6,5,{8}6,5/2,6,5,4/7,6,
3,4,5/2,6/2h[4:1],6,6,4,5,
{16}4,5,4,5,4,5,4,5,4,5,4,5,2,6,4,5,
3,7,3,7,4,6,4,6,3,4,3,4,2,8,2,8,
1b,7,1,6,1,7,1,6,1,8,1,6,1,7,2,6,
3,4,2,6,5,7,2,1,3,7,8,6,{8}1-5[16:1],1,
{16}8b,7,6,4,3,2,7,6,5,3,2,1,{8}8-4[16:1],8,
{16}1,2,3,5,6,7,2,3,4,6,7,8,{8}2-6[8:1],2,
8,{16}1,8,7,6,{8}2h[4:1],{16}8,7,6,5,{8}1-5[16:1],1,
7,{16}8,7,6,5h[16:3],{8}2,{16}1,2,3,4h[16:3],{8}8-4[16:1],8,
{16}1,2,3,5,6,7,2,3,4,6,7,8,{8}1-5[16:1],1,
{16}8,7,6,4,3,2,7,6,5,3,2,1,{8}7-3[8:1],7,
1,{16}8,1,2,3,{8}7h[4:1],{16}1,2,3,4,{8}8-4[16:1],8,
2,{16}1,2,3,4h[16:3],{8}7,{16}8,7,6,5,1,5,1,5,
2,4,3,6,4,5,3,5,4,7,5,6,4,5,3,3,
7,5,6,3,5,4,6,4,5,2,4,3,5,4,6,6,
2,1,3,8,1,7,1,8,2,7,8,6,4,5,4,5,
2,4,3,6,4,5,3,5,4,7,5,6,5,7,5,8,
3b,4,3,4,{8}2,{16}6,5,6,5,{8}7,{16}2,4,3,5,
2b,8,2,8,{8}3,{16}7,1,7,1,{8}6,{16}3,4,3,5,
{32}2,3,{16}4,6,5,6,4,{32}7,6,{16}5,3,4,3,5,{32}2,3,{16}4,{32}7,6,{16}5,
{4}1w5[8:1],,,4-1[8:1]/8-5[8:1],
{1}8/4,
,,,3h[1:1],
4h[1:1],
5h[1:1],
{2}6h[2:1],5-3[8:1],
{4}5-1[8:1],6,4-8[8:1],3,
5-2[8:1],6,4-7[8:1],{8}3,3,
{4}3-5[8:1],7-3[8:1],1-5[8:1],{8}8,7,
{4}6-4[8:1],2-6[8:1],8-4[8:1],{8}1,1,
2b/6b,2,3,3,4,4,5,5,
6/4,6,7,7,8,8,7,1,
{16}2b,8,1,8,1,8,1,8,2,7,1,8,2,7,1,6,
{8}2,{16}5,5,,3,{8}4,{32}7b,6,5,4,3,2,1,8,{8}7/3b,4,
{16}6b,5,7,3,4-8[8:1],2,{8}2,1,3,5,8/4,
{16}3b,4,2,6,5-1[8:1],7,{8}7,8,6,4,1/5,
{16}2b,1,3,7,8-4[8:1],6,{8}1,3/8,2,6/1,5,
4/3b,{16}7,8,,7,5,6,2,1,{8}3,4/7,6/5,
{16}3,4,2,6,5>2[8:1],7,{8}7,8,7,{16}6,5,7,3,
{8}4<7[8:1],{16}1,1,{8}4,2,8/3,5/6,7/4,{16}3,4,
{8}1b,{16}2,2h[8:1],,4,{8}4h[8:1],5,6,{16}3,7,4,6,
3b,5,4,7b,5,6,{8}1b,{16}2b-5[16:1],,,7-3[16:1],,,{8}1,
1,{16}2,2h[8:1],,4,{8}4h[8:1],{16}1,2,3,4,6,5,7,4,
{8}8,{16}7,7h[8:1],,5,{8}5h[8:1],{16}8,7,6,5,3,4,1,5,
{8}2,{16}8,8h[8:1],,6,{8}6h[8:1],5,7/4,{16}2,5,3,4,
{8}1,{16}4,3,,6,{8}5,4/8-4[8:1],{16}3,3,,2,{8}2,
{16}2,4,3,4,1,5,2,5,1,6,2,6,1,7,2,2,
8,3,7,3,8,4,7,4,8,5,7,5,8,8,4,4,
{8}6,{16}4/2,4/2,,,{8}8/1,7/2,{24}8/1,7/2,6/3,{8}5/4,{16}7,8,
{8}7h[8:1],{16}5,5h[8:1],,4,{8}4h[8:1],{32}2,3,4,5,6,7,8,1,2,3,4,5,6,7,8,1,
{4}2h[8:1]/6b-4[8:1],3h[8:1],7h[8:1]/3-5[8:1],6h[8:1],
4h[8:1]/5-7[8:1],3h[8:1],6h[8:1]/3-5[8:1],7h[8:1],
8h[8:1]/4-2[8:1],7h[8:1],8h[8:1]/4-2[8:1],7h[8:1],
3h[8:1]/6-4[8:1],2h[8:1],5h[8:1]/2q6[8:1],{8}7,7,
{4}7>5[2:1],3h[8:1],3h[8:1],{8}3,{16}2/7,3/6,
{4}4h[8:1]/5-7[8:1],4h[8:1],3h[8:1]/6-4[8:1],{8}2,{16}1,2,
{8}3h[8:1],{16}8,8h[8:1],,6,{8}6h[8:1],{16}7,5,7,5,6,4,6,4,
{8}8h[8:1],{16}2,2h[8:1],,4,{8}4,{16}1/5,,,7/4,,,{8}1/6,
4/2b,{16}6,5,{8}6,4,5/3,2,{16}1,8,1,7,
{8}6/2,{16}3,4,{8}3,5,4/6,7,{16}8,1,8,2,
{8}3/7,{16}6,5,,3,{8}4,5/2,6/5,{16}8,4,7,5,
{8}8,{16}3,4,,6,{8}5,{16}2/5,,,4/7,,,{8}8/1,
{16}2h[16:1],6h[16:1],2h[16:1],6h[16:1],3h[16:1],7h[16:1],3h[16:1],7h[16:1],4h[16:1],8h[16:1],4h[16:1],8h[16:1],3,7,4,6,
2h[16:1],7h[16:1],3h[16:1],7h[16:1],2h[16:1],6h[16:1],3h[16:1],6h[16:1],2h[16:1],5h[16:1],3h[16:1],5h[16:1],3,4,2,5,
1bpp5[8:3],,,6,,,{8}7,7h[2:1],{16},,,,1,2,
{2}3,{16}6,,,5,,,{8}4,
{1}3<6[16:25],
E
&lv_6=13+
&des_6=不会写trance
&inote_6=(158){1},
{8}6x/5x,,4,7x,3,,2,,
{16}5/1,,,,2,,6x,,3,5,,4,6,4,6,,
{8}5/7,,4,8x,3,,2,,
{8}1/6,,2,5x,3<5[8:1],,6,,
{16}4,5,,5,3,,4x,,3,5,3,5,3,,5,4,
{16},4,,5,,5,4x,,5,3,5,3,5,,3,4,
{16},4,,3,,3,4x,,3,5,3,5,2,6,2,6,
{48}1,,,1xh[8:1],,,,,,8,,,8xh[8:1],,,,,,2,,,2,,,7x,,6x,,5x,,1x,,2x,,3x,,8x,,7x,,6x,,2x,,3x,,4x,,
{16}5x/1x-5[8:1],,,,4,,3,,2/6,,,,2,,3,5,
{16}4-1[8:1],,,,7,,6,,5,2,,2,5,,3,4,
{16}2-5[8:1],,,,5,,6,,7/4,,,,7,,6,4,
{16}5-1[8:1],,,,2,,3,,4,8,,8,4,,8,5,
{16}7h[8:1],,5,6,,4,5,,3,4,3,4,3,,2,5,
{16}1h[8:1],,6,8,,7,1,,8,2,7,3,6,4,5,3,
{16}4x-7[8:1],,,2,,,1,,2x-5[8:1],,,8,,,1,,
{16}7x,,7,,5x,5x,,6bx/4bx,,2bx/5bx,2bx,,8bx-5[8:1],,,,
{16}8x/1x,,,2,,,3-8[8:1],,,4,,,5-2[8:1],,7,,
{16}6x/5x,,,7,,,8-5[8:1],,,1,,,2<7[8:1],,3,,
{16}2x/4xqq1[2:1],,,5x,,,6xh[8:3],,,,,,,,,,
{16}1,8,1,,2,,2,,1,8,1,,2-5[8:1],,,,
{16}2x/1x,,,8,,,7-2[8:1],,,6,,,5-8[8:1],,3,,
{16}4x/5x,,,3,,,2-5[8:1],,,1,,,8>3[8:1],,7,,
{8}8x/4xpp7[2:1],,,3x,,2x,,1x,
{16}6,,7,5,,5,6,,3,,2,4,3,4,2,4,
{16}1bx,,7,8,,6,4-1[8:1],,5x,,6x,,7x,,8x,,
{16}7bx/2bx,,3,4,,1,8-4b[8:1],,7h[8:1],,8x,,5x,,6x,,
{16}7bx/3bx,,2,4,,4,3,,6x/2x,,7,5,,5,6x,,
{4}4x-7[8:1],2x-5[8:1],8x-4[8:1],6x,
{16}3xh[8:3],,,4,,,2,,8xh[8:3],,,1,,,6,,
{16}5xh[8:3],,,7,,,4,,6x/3x,,2,4,3,5,4,6,
{16}5xh[2:1],,7,,8,,8,,1xh[8:3],,4,,3,,2,8,
{16}4xh[8:1],,7,3xh[8:1],,6,2xh[8:1],,5,1,5,1,5x,,,,
{16}2x,4,2,4,2,,7x,4,7,4,7,,1x,8,1,,
{16}6x,5,6,5,6,,2x,4,2,4,2,,7x,1,7,,
{16}4x,5,4,5,4,,7x,5,7,5,7,,2x,8,2,,
{16}6x,5,6,4,5,4,5,3,4,3,4,2,3x,,4bx/2bx,,
{16}6x,5,6,5,7,,4x,5,4,5,2,,7x,8,7,,
{16}3x,4,3,4,2,,5x,4,5,4,7,,2x,1,2,,
{16}6x,5,7,4,6,,3x,4,1,5,2,,7,8,7,,
{16}6bxh[8:1]/1bxh[8:1],,,4bxh[8:1]/3bxh[8:1],,,2bxh[8:1]/1bxh[8:1],,,4bxh[8:1]/7bxh[8:1],,,6x,5,4bx/7bx,,
{16}3x,4,2,5,1,6,1x,8,2,7,3,6,4x,5,4,5,
{16}2x,4,1,5,8,6,2x,8,3,7,4,6,5x,7,5,7,
{16}3x,4,3,5x,4,5,3x,4,2,5x,4,6,3x,,4x/2x,,
{16}8x/1x,,3x/7x,,4x,,6x,5,7,4x,5,3,6x,5,7,,
{16}2x,4,2,6x,4,6,2x,4,3,6x,4,5,3x,4,2,,
{16}1x,7,1,6x,,6,2x,,2,1x,,1,4x,7,4x,5,
{16}2x,4,2,6x,4,6,3x,5,3,7x,5,7,4x,6,4x,5,
{1}4bp1[2:1],
{8}8x/1xh[8:3],,,2h[8:3],,,3,,
{16}3/4h[8:3],,,,,,5h[8:3],,,,,,6,,5,6,
{8}5h[8:3],,,3h[8:3],,,1,,
{8}1/8h[8:3],,,6h[8:3],,,5,,
{16}5/4h[4:1],,,,5,,6,,5,,,,4,,3,4,
{8}3h[4:1],,4,5,4,,3,2,
{8}3h[1:1],,4,4,,5,,6,
{1}6>8[2:1],
{8}2/E1,,C,3,E5,,3/C,,
{16}2/E1,,,2,C,,2,,E5,,,,C,,3,3,
{8}E1,,C,2,E5,,3/C,,
{8}2/E1,,C,3,E5,,2/C,,
{8}1x/8x,1,2/1,2,3/2,3,3/4,4,
{8}4x/5x,5,6/5,6,6/7,7,7/8,8,
{16}1x,1,2,2,3,3,4,4,5,5,6,6,7,7,8,8,
{1}1x>8[2:1],
{16}8/7-4[8:1],,3,3,,1,1,,8,5,2,6,3,4,3,,
{16}1/2-5[8:1],,6,6,,8,8,,1,4,7,3,5,2,4,,
{16}8/7-4[8:1],,3,3,,2,2,,8/7-4[8:1],,3,3,,1,1,,
{16}8,6,7,2,1,3,8-4[8:1],,4,4,,3,3,,2,,
{16}1/2-5[8:1],,6,6,,8,8,,1,4,7,3,6,5,6,,
{16}8/7-4[8:1],,3,3,,1,1,,8,5,2,6,4,7,5,,
{16}1/2-5[8:1],,6,6,,7,7,,1/2-5[8:1],,6,6,,8,8,,
{16}1,3,2,7,8,6,1,,5/6,5/6,,7/4,7/4,,5/2,,
{16}8/7V51[8:1],,4,4,,2,2,,4,8,5,7,3,5,2,,
{16}1/2V48[8:1],,5,5,,7,7,,5,1,4,2,6,5,6,,
{16}8/7V51[8:1],,4,4,,2,2,,1/2V48[8:1],,5,5,,7,7,,
{16}1,5,2,6,4,7,5>2[8:1],,8,8,,6,6,,4,4,
{16}1x-5[8:1],,5,5,,6,6,,7-4[8:1],,4,4,,3,3,,
{16}2-6[8:1],,6,6,,7,7,,8-5[8:1],,5,5,,4,4,,
{16}3,4,3,5,4,5,3,4,2,5,4,6,3,4,1,5,
{48}2x,,,4,,,2,,,6x,,,4,,,6,,,2x,,3,,4,,5,,6,,7,,3x,,4,,5,,6,,7,,8,,,,,,,,
{16}2V48[4:1],,,1,2,,7,,6-2[8:1],,,,8-5[8:1],,,,
{16}8x/1x,,,2,,,3-8[8:1],,,4,,,5,,7,8,
{16}7V51[4:1],,,8,7,,2,,3-7[8:1],,,,8-5[8:1],,,,
{16}8x/1x,,,2,,,3-8[8:1],,,4,,,5,,7,8,
{16}7h[2:1],,,,,,,,,,,,1,,3,4,
{4}3h[2:1],,,5/2-5[8:1],
{16}2x/1x,,,8,,,7-2[8:1],,,6,,,5-8[8:1],,3,,
{16}4x/5x,,,3,,,2,,2b,1,3,7b,8,6,1b,,
{16}8-4[16:1],,,1-5[16:1],,,7V53[8:1],,,2,,,1,,8,,
{16}2-5[16:1],,,8-4[16:1],,,3V51[8:1],,,6,,,7,,8,,
{16}6-2[16:1],,,1-6[16:1],,,8V64[8:1],,,3,,,2,,1,,
{16}3-8[16:1],,,7-3[16:1],,,1V35[8:1],,,6,,,7,,8,,
{16}2bx/1bx,,2,1,,1,3,,3,4,,2,2/E5,C,E1,,
{16}3x,,3,4,,4,2,,2,8,,1,1h[4:1]/E8,C,E4fh[8:1],,
{2},E4,
{1}C,
{1}E8,
