&title=8の季節
&artist=Haruka Nakamura
&first=0
&lv_5=12+
&des_5=180 回 のルックバック
&inote_5=
(131){4},,,{32},4h[32:11],{16},,,{8}B6,
B5,{4}E7,5h[8:3],{8}B3,B4,
{4}E3,3h[8:3],{8}E8,E7,{4}E6,
6h[8:3],{8}E2,E3,{4}E4,4h[8:1]/3h[8:3],
{8}E6,E5,{4}E4,6h[8:3]/5h[8:1],{8}E4,E5,
{4}E6,3h[8:3]/5h[8:1],{8}E8,E1,{4}E2,
6h[8:3]/4h[8:1],{8}E2,E1,{4}E8,{8}8-6[8:1],8-5[8:1],
{2}8-4[8:1],{8}1-3[8:1],1-4[8:1],{4}1-5[8:1],
,{8}8-6[8:1],8-4[8:1],{4}8>6[4:1],A8,
{8}1-3[8:1],1-5[8:1],{4}1<3[4:1],A1,{8}7>2[8:3],A7,
E5,C,{4}E1,{8}3<6[8:3],A3,E1,C,
{4}E5,{8}2V85[8:3],6V41[4:1],{4},,{8}1-7-5[8:3],
1s5[4:1],{4},Cf,(133)7h[8:1]/8-5[8:1],
6h[8:1]/8-3[8:1],2h[8:1]/A8,3h[8:1]/4-1[8:1],2h[8:1]/4-7[8:1],
6h[8:1]/A4,{8}3h[4:1],C,4h[4:1],E5,2h[4:1],E1,
6h[4:1],C,5h[4:1],E5,7h[4:1],E1,{4}Cf,
{8}E2,B7/E7,B2,E7/B6,{4}B3,{16}C/E2,E3,E4,E5,
E6,E7,E8,E1,{4}5h[4:1]/E2,6h[4:1],7h[2:1],
{2}2q5[8:3],{4}Cf,7h[2:1]/2h[2:1],
,{8},B6/B3,{2}5h[2:1]/4h[2:1],
{8},C,{4}1h[8:3]/8h[8:3],,B7/B6/B2/B3,
{8}7h[2:1]/2h[2:1],{4},,{8}B3/B4,(134){4}5h[4:1],
6h[4:1],A7,4h[4:1]/C,3h[4:1],
A2,5h[4:1]/C,7h[4:1],A1/E1/B1/E2,
4h[4:1]/C,2h[4:1],A8/E1/B8/E8,A6/A4,
A7/E7/B7/B3/E4/A3,Ch[4:1],(135){2}1h[2:1],
{4}2-6[8:1],{128}4bw8[1:1],Cf,{1},{4},{16},,,{64},,,{4}1<5[4:1],
5x>1[4:1],A5/1<5[4:1],5x>1[4:1],A5/1<5[4:1],
{2}5-3-6-2-7-1[4:5],{4}A3,A6,
A2,A7,Cf,4>8[4:1],
8x<4[4:1],A8/4V28[4:1],8xV64[4:1],A8/4s8[4:1],
8<1[4:3],,,{8}E5,C,
{4}E1f,E7,E3,(136)7h[2:1]/C,
6>3[8:1],A6,5h[2:1]/C,1-4[8:1],
A1,E2/8<2[1:1],,5>2[2:1],
A5,B5,C,E2/2-5[4:1],
5-8[4:1],8-3[4:1],3-6[4:1],6z2[4:1],
2>1[4:5],Cf,,E6,
E7,E8,Cf,(137)C/2q6[4:1],
6xq2[4:1],A6/2>6[4:1],6x<2[4:1],A6/2V46[4:1],
6<5[4:3],C,,5z1[8:5],
6s2[8:3],{2},{4}Cf/3<1[4:3],
E4,E2,1>7[4:3],E8,
E6,7>5[4:3],E4,E2,
5<3[4:3],E8,E6,(138)3<1[4:3],
B3/B4,B1/B2,1>7[4:3],B8/B7,
B6/B5,7>5[4:3],B4/B3,B1/B2,
{2}6h[2:1],{4}1>1[4:3],(139){8}Cf,E4,
E3,E2,1>1[4:3],E1,E8,E7,E6,E5,
1>1[4:3],E4,E3,E2,E1,E8,1>1[4:3],E7,
E6,E5,E4,E3,1>6[4:3],E2,E1,E8,
E7,E6,{4}6pp3[8:5],{2}A6f,
{4},6h[4:9]/4-1<8-5>4[1:2],
