&title=パラサイト
&artist=DECO*27; 初音ミク
&first=0
&des=Mr_HaoZi
&lv_5=13+
&inote_5=(138)
{1},
{4},,,6h[1:1],
{4}1,2,3,4,
{4}E6/E4,E7,E6/E4,E3,
{4}E6/E4,E8,E6/E4,E2,
{8}45,45,36,27,1^4[8:1]/8^5[8:1],27,18,,
{8}C,{16}3,4,3,4,{8}3,E6,,E1,,
{4}3-6[8:1]/4,5,3v6[8:1]/4,5,
{4}3V16[8:1]/4,5,3>6[8:1]/4,5,
{1}3qq8[2:1]/7qq4[2:1],
{8}8-5[8:1],,2,2,1-4[8:1],1,6,6,
{8}5-8[8:1],5,3,3,4-1[8:1],4,8,8,
{8}7-2[8:1],7,4,4,3-6[8:1],3,5,5,
{8}6-3[8:1],6,1,1,2-7[8:1],2,,,
{8}6-1[8:1],6,2-5[8:1],2,7-4[8:1],7,3-8[8:1],3,
{8}5^8[8:1],4,3,2,1^4[8:1],8,7,6,
{8}5,5,5,5-8[8:1],5-2[8:1],5s1s5[2:1],5,5,
{4},,,{32}E8,B7,B6,E6,,,,,
{4}1b-5[2:1],,,,
{8}2h[8:1],6h[8:1],3h[8:1],7h[8:1],2h[8:1],6h[8:1],3h[8:1],7h[8:1],
{12}3x,4,2,6x,5,7,2x,1,3,7xs3[4:1],8,6,
{4},,E4,E2,
{16}6^3[8:1],,,1,{8}1^6[8:1],,4^1[8:1]/1-5[8:1],,14,,
{8}8<3[4:1],8,8^3[8:1]/3p6[8:1],,8^5[8:1],,8,,
{12}3x,3,3,5x,5,5,2x,2,2,7x,7V14[4:1],7,
{2},2-5[8:1]/6-1[8:1],
{16}2-6[8:1],2,2,2,7^5[8:1],7,7,7,1^4[8:1],,1,,1^7[8:1]/6-3[8:1],,,,
{8}1>5[8:1]/6,,{16}1-4[8:1]/6-8[8:1],6,6,6,{4}1V35^7[8:2]/6-3[8:1],16,
{6}2h[6:1],6h[6:1],7,3h[6:1],8h[6:1],1,
{4}1p5[8:1]/8^6[8:1],1^3[8:1]/8q4[8:1],1-5[8:1]/8-6[8:1],18,
{16}3,4,1,8,5,6,1,8,3h[16:3],,4,4,8h[16:3],,4,4,
{16}6,5,8,1,4,3,8,1,6h[16:3],,5,5,8h[16:3],,5,5,
{6}2b/4b,6b/8b,1b/2b,4b/6b,1b/8b,2b/5b,
{6}7b/8b,4b/6b,2b/4b,{16}6b/7b<3[8:1],,1b/2b,,7b/3b,2,1,8,
{4}7s3[2:1],,{8},E1,,,
{16}1,6,5,6,1,5,4,5,1,4,3,4,1-6[8:1],,,,
{8}1b-4[8:1]/5,4,1-6[8:1]/5,6,1-4[8:1]/5,4,15,6,
{16}3xq5[16:3],,,,3b,,7,7,2xq5[16:3],,,,2b,,7,7,
{16}3xqq5[16:3],,,,3b,,6,6,2xqq5[16:4],,,,2b,,6,6,
{8},2h[8:1],6h[8:1],5h[16:4],1h[8:1],,{32}15,48,37,26,,,,,
{8}7h[8:1],{32}E6,B5,B4,E4,{8}6h[8:1],{32}E8,B8,B1,E2,{8}5x-7[8:1]/1x-3[8:1],,15,,
{8}3xq5[16:3],6-8[8:1],3,,2xq5[16:3],6-8[8:1],2,,
{8}3xqq5[16:3],8-6[8:1],3,,2xqq5[16:3],8-6[8:1],2,,
{8}2-6[8:1],1-5[8:1],2-4[8:1],1-7[8:1],2-6[8:1],1-5[8:1],2,1,
{8}2b^7[8:1],4-8[8:1],2,4,,2-5[8:1],78,2,
{8}6-2[8:1]-4[8:1],8^2[8:1],6,8,,1,2,3,
{8}6-1[8:1],34,,3-8[8:1],56,,6^1[8:1],1-5[8:1],
{8},3p3[8:1],3^8[8:1],,,,5w1[8:1],,
{8}5,,{16}6,5,{8}6,1^6[8:1]/2^5[8:1],38,12,,
{4}6xpp1[16:3]b/2xpp5[16:3]b,,7xqq4[16:3]b/3xqq8[16:3]b,,
{4}6xqq1[16:3]b/2xqq5[16:3]b,,7xpp4[16:3]b/3xpp8[16:3]b,,
{8},1-5[8:1],8-4[8:1],1-3[8:1],8-6[8:1],1-5[8:1],8<4[1:2]*-4[8:1],1,
{8}8,{16}1,8,2,8,3,8,4,8,3,8,2,8,1,8,
{8}2,3,4,3,2,1,8w4[8:1],,
{8}8,,1^4[8:1],8,6,,7-3[8:1],,
{4}1-5[8:1]/7,6-2[8:1]/1,8-4[8:1]/6,85,
{8},34,6,34,7,34,{16}8,1,7,2,
{16}6,3,5,4,6,3,7,2,8,1,7,2,6,3,5,4,
{8},6,25,4,37,5,1^3[8:1]/7,2,
{8}1/7-4[8:1],6,1-5[8:1],2,7-3[8:1],6,1^7[8:1]/7,2,
{4},6,5h[16:3]/3v6[8:1],,
{4},4,3h[16:3]/7v4[8:1],,
{12}35,2x,1x,78,6x,5x,41,2x,3x,46,7x,8x,
{12}13,2x,1x,58,6x,7x,28,3x,4x,1-5[8:1]/5,8x,7x,
{12},,,45,,,1^4[8:1]/8^5[8:1],27,36,18,,,
{12},,,4h[4:1],,,7^5[8:1],8,1,27,,,
{12}36,2,2,17,6,6,15,8,8,1h[12:2]/4,,5,
{12},26,7,7,38,4,4,57,6,6,,,
{16}2,,25,2-5[8:1],7h[16:3],,,2,7,,47,7-4[8:1],2h[16:3],,,7,
{16}2,,25,2-5[8:1],7h[16:3],,,2,7,,47,7,2,8,2,8,
{16}1,,15,1-5[8:1],8h[16:3],,,1,8,,48,8-4[8:1],1h[16:3],,,8<8[2:1],
{4},,,6h[1:1],
{4}1,2,3,4,
{4}45,E6/B5/B6,45,E4/B4/B3,
{4}45,E8/B7/B8,45,E2/B1/B2,
{4}45,E7/E3/B6/B7/B2/B3,8^5[8:1]/1^4[8:1],1-5[8:1]/8-4[8:1],
{8}18,,{16}6,5,6,5,{8}1^6[8:1]/2^5[8:1],38,12,,
{4}6bpp1[16:3]b/2bpp5[16:3]b,,7bqq4[16:3]b/3bqq8[16:3]b,,
{4}6bqq1[16:3]b/2bqq5[16:3]b,,7bpp4[16:3]b/3bpp8[16:3]b,,
{8},8,1-5[8:1],8-6[8:1],1^4[8:1],8,1,,
{8}2-7[8:1],6-3[8:1],2qq5[4:1],6-8[8:1],2,6,,,
{8}1^3[8:1]/8-3[8:1],67,18,,1^3[8:1]/8q4[8:1],67,18,,
{8}1^4[8:1]/8q4[8:1],67,18,,1^4[8:1]/8q5[8:1],67,18,,
{24}1,2,3,4,5,6,7,8,1,2,3,4,5,6,7,8,15,26,37,48,,,,,
{16}57,,3,4,2,,3,4,{8}1^4[8:1],8,7,6,
{8}1-6[8:1]/8^6[8:1],23,18,,1p5[8:1]/8^6[8:1],23,18,,
{8}1p5[8:1]/8^5[8:1],23,18,,1p4[8:1]/8^5[8:1],23,18,,
{24}8,7,6,5,4,3,2,1,8,7,6,5,4,3,2,1,48,37,26,15,,,,,
{8}7b^2[8:1],5-1[8:1],7,5,,7-4[8:1],12,7,
{8}3-7[8:1]-5[8:1],1^7[8:1],3,1,,8,7,6,
{8}3-8[8:1],56,,6-1[8:1],34,,3^8[8:1],8-4[8:1],
{8},6q6[8:1],6^1[8:1],,,,4w8[8:1],,
{8}4,,{16}3,4,3,4,{8}8^3[8:1]/7^4[8:1],16,78,,
{4}3xqq5[16:3]b/6xpp5[16:3]b,3b/6b,3xqq4[16:3]b/6xpp4[16:3]b,3b/6b,
{4}5xpp5[8:1]b*qq5[8:1]b,5b,4xpp4[8:1]b*qq4[8:1]b,4b,
{8}3^8[8:1]/4,1/8q4[8:1],3/4^7[8:1],7q3[8:1],3^6[8:1],,,,
E
