&title=トリックハート feat.重音テト
&artist=MIMI
&first=-0.575
&des_5=zenusan
&lv_5=13+
&des=zenusan
&inote_5=(150){4},,,4h[4:1],
{8}5,{16}3,4,{8}2,1/8,7-4[8:1],6,2>8[4:1],1,
,,E6,E7,{4}E8,4h[4:1],
{8}5,{16}3,4,{8}2,7/1q5[8:1],2/8p4[8:1],1/7,8,3h[2:1],
4>5[8:3],,,,,3,2,1,
{4}1>4[8:1],8v5[8:1],1v6[8:1],7v4[8:1],
5>2[8:1],8p5[8:3],,4-1[8:1],
{8}4/6,7,2>5[8:1]/8v5[8:1],1/7,,,2/7,7/2,
1-3[8:1],8-4[8:1],{4}1<3[8:3],{8},,,,2x,
2xh[4:1],B5,B6,3x,3xh[4:1],B7,E8,
4x,4xh[8:3],B8,B1,{4}Ch[2:3],1x-7[8:1],
,1x>4[8:1],,1x,
{8}1,1/8x,1/7x,1/6x,{2}5x<6-1[8:1]/1>2-5b[8:1],
{8}8b/4b,{16}3-7>2[4:1],4,{8}2,5,5,6,7<4[8:1],3,
7>2[8:1],{16}1,1,{8}7w3[8:1],4,{4}7b,{8}1/2-4<5[8:1],1/2,
8,{16}7,7,{8}6V82>4[4:1],7/5,6h[4:1],,,7/8-4[8:1],
8/7-3[8:1],8-5[8:1],7>5[4:1],8,{4}7b,{8}2,2,
1b/5b,{16}6-2<7[4:1],5,{8}7,4,4,3,7/1-7<6[8:1],8,
3/1-3<4[8:1],2,7/1w5[8:1],8,{4}1b,{8}1/2>3-5[8:1],1/2,
{16}8,,,7,{8}8<7-4[8:1],8/1,{4}2,{8}3/1,4,
5/3h[8:1],6,6/3h[8:1],7,{4}3b/7b,4>1[8:1],
{8}8-6>5[8:1],7,4-2-8v3[4:1],3,8v5-7b[4:1],7,,,1-3<4[8:1],
2,5<8[8:1],6,1-6[8:1],2-5[8:1],1,2,
8<5[8:1],7,4-2[8:1]*-1[8:1],3,{4}4-6[8:1]*-7[8:1],4<3[2:1],
{8}4,E6,E7,E8,{4}E1,{8}5/4,4/5,
6b/3b,{16}2,2,{8}1<6[8:1],8,1/3-7-1[16:3],4,,,5b,
{16}6,6,{8}4-2[8:1],4-8[8:1],4,4,3>8[8:1],4,
5/3bx,6,7<4[8:1],8,1/7bx,2,3-1[8:1],4,
3bx-8[0.3##0.2],{16}5,3bx-7[0.3##0.2],,6,{8}3bx,{2}8xh[2:1],
{8}2h[2:1],{16}E7,B6,{8}B5,4,4h[2:1],B6,C,B2,
1h[2:1],{16}E8,B7,{8}B6,5,{4}5h[4:1],Cfh[4:1],
{8}7h[2:1],{16}E3,B3,{8}B4,5,5h[2:1],B3,C,B7,
8h[4:1],B7/B6,1h[4:1],B2/B3,{4}8x,{8}5/4,5/4,
6/3,{16}2,1,{8}2,7<4[8:1],8,1,2>4[8:1],3,
7<5[8:1],6,2<4[4:1],3,,,{4}8x,
{8}6/3,{16}7,8,{8}7,1,2h[4:1],{24}E1,B8,B7,{8}E7,6xh[8:5],
5,4,3,2,{2}1>6[4:1],
{4}7,7/5p1[4:1],7,7,
7/8,7/8v3[4:1],7,7,
6/2,6/2q7[4:1],6,6,
6/1,6/1p5[4:1],6,6,
2/4,2/4q8[4:1],2,2,
2/1,2/1v6[4:1],2,2,
3/7,3/7p2[4:1],3,3,
3/8,3/8q4[4:1],3,3,
{16}6/5h[16:3],,,6,{8}5,7/4,{16}5,6,{8}5,4h[8:1],5,
{16}3/4h[16:3],,,3,{8}4,2/5,{16}4,3,{8}4,5h[8:1],4,
{16}5/7h[16:3],,,5,{8}7,6/5,{16}7,8,{8}7h[8:3],4,3,
2,7x/1x,1q5[8:1]/7-4[8:1],7h/1h,{2}1b/7b,
{8}2b/4b-7>2[4:1],{16}3,5,{8}4,6h[8:1],,3/8,7/4v1[8:1],5/6,
{16},,8,8,{8}2>5[8:1]*-4[8:1],7,{4}2,{8}3/4,4/3,
{16}4/3>8[8:1],,,5,{8}3,6,{4}5/6<1[8:1],{8}4,3-6[8:1],
2-7[8:1],3,{4}2>8[4:1],2h[4:1],A8f,
{8}7b/5b-2<7[4:1],{16}6,4,{8}5,3h[8:1],,6/1,2/5,5/2,
{16}4/3,3/4,,6/5,{8}6-2[8:1]/5-1[8:1],7/4,{4}6/5,{8}8,8,
{16}1/2h[16:3],,,1,{8}2V86-3[4:1],3,{2}4h[4:1],
{8}7/8-4[8:1],6,7/8>6[8:3],5,{2}8/7,
{8}7<4[8:1],8,2<7v4-1[8:3],3,5-7-3b[4:1],6,{16},,,,1x>4[8:1],
1,8,2,{8}6>3[8:1],7,8-5[8:1],8-3[8:1],8-4b[8:1],8,
{16},,2,2,{8}1<6[8:1]*>4[8:1],8,,,B6/A6/E6/E2/A2/B2,B7/B8/B4/B3/E4/E8,
Cf,1h[8:3],8,7,{4}6-3[8:1],{8}2,2,
1b-5-7-3[8:3],{16}8,8,{8}1,4-1[8:1]*-1[8:1],4-8[8:1]*-8[8:1],4,,2-6[8:1],
7b-3[8:1],2,7<4[8:1],8v3[8:1],7,8,7h[4:1],8,
8b,{16}3,4,2,4,{8}3,1b/2b,{16}6,5,7,5,{8}6,
{16}7bx/2b-5[0.3##0.15],,,2bx/7b-4[0.3##0.15],,,{8}4bxw8b[4:1],,,,,B3/B2/E3,
{16}E1,B8,{8}B7,B6,{16}B3,,,E5,,,{8}D5,
6xh[8:1]/A4,D4,6xh[8:1]/A3,D3,{4}6x/A2,E1/B1,
{16}Ch[16:3],,,B7/B6/B2/B3,,,{8}E1,C,E5,E6/E4,E7/E3,
7x/2xh[8:1],B6/E6/B5,2x/7xh[2:1],{16}E2,B1,{8}B8,{16}E6,B5,{8}B4,{16}E2,B1,
B8f,,,Ch[16:3],,,{8}7xh[8:3],{16}E4/B3/A3,,,A1/B1/E2,,,{8}B2/B3/E3,
{16}E8/B7/B8,,,E6/A5/B5,,,{8}E7/D7/A7/A6,B3,B4,B5,B6,
{16}Ch[16:3],,,B7/B8/B1/B2,,,{8}2x/B5,2x/B6,7x/B4,7x/B3,{16}B1,C,
{8}B5,E7,E3,B8,{4}B1,E1,
{1}1x-4[4:3],
{4}8x-5[4:3],,,4xqq4[1:1],
{1}4xpp4b[1.6##1.6],
{4},,,,6,
6/4,6/4,6/4,
5/3,5/3,5/3,5/3,
{8}2/4,2,1/5,1,7/4,7,6/3,6,
4/5,{16}3,3,{8}3,{16}6,6,{8}6,{16}1,8,1,8,1,8,
{4}2-5b[8:1]/7-4b[8:1],2b/7b/E3f/E7,{8}1/8,3/4>3-7-1[4:1],5,6,
6,{16}5,5,{8}2w6[8:1],3,{4}2b,{8}5/3,5/3,
1,{24}1,2x,3x,{8}4x/1V74>2[4:1],2/8,,,5-2[8:1],5-8[8:1],
5-1[8:1],5-7[8:1],5>7[4:1],5,,,{4}6bh[4:1],
{8}4b,{16}3,4,{8}2,1v6[8:1],7,1/2,3h[4:1],5,
4>1[8:1],5,6/4v1[8:1],6,{4}4/7h[4:1],{8}8,8,
{16}8v3[8:1],,,1,{8}8,2p6[8:1],3/1,2,5<6-1[8:1],7,
4/5>4-1[8:1],3,5/6,7,{2}2h[8:1]/8h[4:1],
{8}1b>4[8:1],{16}2,2,{8}1/5-7>8[8:1],6-3b[8:1],{4}5,{8}1-5[8:1],8,
1/7h[16:1],7h[16:1],7-3[8:1],8-4[8:1],7-5[8:1],8-2[8:1],7,8,
5<8[8:1],{16}6-2b[8:1],4,{4}5,8b-6[8:1],1b-5[8:1],
{8}2b<5[4:1],2b,3b,3b,{4}4b-8[8:1],{8}4/3,3,
3b-6[8:1],{16}2,2,{8}3-7[8:1],4,5/3-8[8:1],5,3/6,6,
6b-3[8:1],{16}7,7,{8}6-2[8:1],5,4/6-1[8:1],4,6/3,3,
2b/8b,{16}4,5,3,4,{8}2,7b/1b,{16}5,4,6,5,{8}7,
{32}2bx/8bxh[8:1],3,{16}4,{32},,7bx/1bxh[8:1],6,{8}5,{32}8bx,7/1,6/2,5/3,{8}4bxw8[8:1],4bx,,
E
