&title=爹系男友喜欢吗
&artist=AI
&first=0.495
&des=磷化锆
&lv_5=13
&des_5=磷化锆
&inote_5=(59)
{96}7>2[1.0169##0.2308]/2v4[1.0169##0.2308],3,4,,,,,,,,,,,,,,,,,,,,,,
(65)
{16}2b/7b>3v5[0.9231##0.6957],,,,
(57.5)
{128},,,,,,,,,,,,,,,,,,,,,,,,,,,,,,,3h[#2.059365],
{16},,,,
,,
(65)
{16}7h[#0.4615383],,
(80)
{48},,,,,,7b/3b,6/2,5h[4:1]/1-6V48[0.75##1.2778],,,,
{16},,,,
,,2xh[#0.375],,
(90)
{16},,,,
(84)
{32}6h[#0.7142859]/B8/E8,,,,,B3,,,
(80)
{48}E2,,,,,,6b/8b,5/1,4/2<6[0.75##0.5948],3h[48:11],,,
{12},,2x,
(87)
{12},2xh[#0.4597702],,
(78)
{48}6b,3x/7,4x/8h[24:11],,,,,,,,,,
,1bh[48:11],,,,,,,,,,,
,,,,,1b/8b,7/2,6/3,5h[#0.2564106]/4h[#0.2564106],,,,
(90)
{32},,,C,,,,,
(97.5)
{48}1bxpp5>5[4:5]/8bxqq4<4[4:5],7/2,6/3,4/5,,,,,,,,,
{16},,,,
,,,,
,,,,
{16},,,,
,,,,
{64},,,C,,,,,,,,,,,,,
(118)
{32}1b/8b-4[32:3],7,6,5h[32:5],,,,,
{16}8x,,6,,
7-1[32:3],,,,
7/E3/B3/E4,,,,
{16}3/5,,6,,
4/7-5[12:1],,8-4[12:1],,
7x-3b[12:1],,,,
,,,,
{32}8bx/1bx-5[8:1],2,3,4h[32:5],,,,,
{16}1x,,3,,
2,,6,5,
7h[8:1],,8,,
{16}B5,,B4,,
B8h[4:1]/B7h[4:1]/B6h[4:1]/E6h[4:1]/B1h[4:1]/B2h[4:1]/B3h[4:1]/E4h[4:1],,,,
,,,,
8bxh[8:1]/1bxh[8:1],,,,
{32}2bxv4[8:1]/7bx>2[8:1],6/3,5/4,,,,,,
{16},,,,
3p7[8:1],,7p3[8:1],,
C,,,,
{16}6x>4v1[8:3],,7x,,
8x-5[8:1],,,,
,,,,
6h[8:1]/2h[8:1],,,,
{16}8b-5[8:1]/7b-2[2:1],,,,
8x,,,,
5x,,6x,,
7x-5[12:1],,3-5[12:1],,
{16}7bx-3[8:1],,3-7[8:1],,
7bx,,,,
2V86[16:3],,,,
{64}3,,,,,,,,3,,,2,,,,,
{16}1-3[12:1],,,,
1/E6/A5/A6,,7,,
4/8-6[12:1],,3,,
8/2-4[0.5085##0.1754],,1-7[0.5174##0.1754],,
(114)
{16}2bx-6[0.5263##0.1695],,1bx-5[0.5174##0.1695],,
(118)
{16}2bx,,1bx,,
,,3bh[8:1],,
5,5,4,6,
2bh[8:1]/6bh[8:1],,,,
{16}Cf,,,,
1bh[4:1],,,,
B8/B1/B2/Cf/B7/B6/E6/B5/B4/B3/E5/E4/A5/A4/A6,,,,
{4}
