&title=RONDØ
&artist=Ashrount
&first=-0.3
&des=Soyorin
&lv_5=14+
&des_5=Soyorin
&inote_5=
(157){4},,,,{48}1b,
2/8,3/7,4/6,{12}5V71V35-1[12:17],{24},,,,,{8}B6,,,{4}B4,
{8}B2,,,B8,,,{4}E3,
{8}4>4-8[2:3],,,B3,,,{4}B5,
{8}B7,,,B1,,,{4}E7h[4:1],
{32},,,,,,,,4,5,{16}4,{32}6,5,{16}6,{32},,,7/3,,,,,1v6[16:1]/5-2b[16:1],6/2,{16}7/3,,1x/5x,
{32},,,,,,,,5,4,{16}5,{32}3,4,{16}3,{32},,,2/6,,,,,8v3b[16:1]/4-7[16:1],3/7,{16}2/6,,8x/4x,
{32},,,,,,,,7bx,6x,{16}5x,{32}1bx,2x,{16}3x,{32}8bx,7x,{16}6x,{32}2bx,3x,{16}4x,{32}8bxw4b[2:1],1x,2x,3x,4x,5x,6x,7x,
{1}8x,
{4}C,{16}3bh[32:1],5,4,6bh[32:1],4,5,2bh[32:1],5,4,7bh[32:1],3,4,
1bh[32:1],6,5,8bh[32:1],4,5,{32}B2/E3,B3,{16}B4,{32}B7/E7,B6,{16}B5,{32}E3/D3,A3,{16}D4,{12}4bx/8bx,4bx/8bx,6bx/2bx,
{24},,,,,,,,,,,,,,,{8}B8h[8:1],{48}Cf,B4,{24}A4,{48},,,,,,,,{16}3x,
7,3,7,5,7,3,7,1,1,,7,{8}7h[8:1],{32}5,4,3,2,
{16}1x,4,1,6,1,4,1,7,2,2,,8,{4}8h[8:1],
{8}1/2,2/1,6/4,6/4,{32}3,2,{16}1,{32},,5-1[16:1],6,{8}7,5,
8,8,{32}8,1,2,3,4,5,6,7,{16}2b-5[16:1]/8b-5[16:1],,,8b/2b,,,{8}3b/7b,
{16}6x,2,6,2,4,2,6,2,8,8,,2,{8}2h[8:1],{32}4,5,6,7,
{16}8x,5,8,3,8,5,8,2,7,7,,1,{4}1h[8:1],
{8}8x/7<5-1[8:1],7,5,4,1x/2-4-8[8:1],2,4,5,
{32}6x,5,{16}6,{32},,3x,4,{16}3,6h[8:1]/2h[16:1],,,,5b/1b,,,{4}7b/3b,
{1}5bpp1[4:5]/1bpp5[4:5],
{16},,,,,,,,,,,,E4,B4,B5,E6,
7x,4,5,3,7,2,4,1,6,6,,2/8,{8}8/2,{16}3,4,
{8}5/2,5/2,{32}7/4,3,2,1,8,7,6,5,{16}4bv7[16:1]*v1[16:1],,,4b,,,{8}6b/2b,
{16}3x,5,4,6,2,4,3,6,{8}1,{16}2-6[16:1]/7-1[16:1],7/2,,,,,{8}5x,
4,{16}3-8-2[8:1]/7-4-6[8:1],3/7,{8}3/7,,,,,7h[16:1]/1h[16:1],
6h[16:1]/4h[16:1],2h[16:1]/8h[16:1],5h[16:1]/3h[16:1],{32}2,4,{16}2,{32},,5,3,{8}5,6/2,
{16}4/3,5/2,,6/5,{8}7/4,{16}5/4,6/3,,8/1-5[16:1],{8}2/7,{4}8/1w5b[16:1],
{1}1bqq3-5<1[2:3],
{8},,,,,,,,6h[4:1]/3h[4:1],
,,E1/A2,{2}B7h[8:1]/E4h[4:1]/E7h[4:1]/B3h[8:1]/B6h[8:3]/B4h[8:3],
B6h[16:3]/B2h[16:3]/E7h[16:5]/E3h[16:5]/B3h[8:3]/A6h[16:7],E8h[4:1]/E3h[4:1]/B7h[8:1]/B2h[8:3]/B8h[8:3]/E2h[8:1],
{4}5h[16:1]/4h[16:1],{32}1,8,1,8,1,8,1,8,1,2,3,4,{8}5,{16}6,6,6,6,
{8}7h[16:1]/5h[16:1],6h[16:1]/4h[16:1],{16}3,3,3,3,{8}2h[16:1]/4h[16:1],3h[16:1]/5h[16:1],{16}8,8,8,8,
{1}6bv8pp4[2:3]/2bv8qq4[2:3],
{4},,,,C,
{32}6,5,6,5,{8}6,7/4,2/5,1,{32}3,4,3,4,
{4}3b,{32}2,1,2,1,{8}2,3/8,6/1,{12}8/7,8/7,8/7,
{4}6b/1b,{8}3h[8:1],{16}4,3,{8}5/2,6/3,{32}4-8b[16:1]*pp7[4:3],5,4,5,4,5,4,5,
{1}4qq1[2:1],
{8}6bx/2bx,{16},,,,E3,B3,B6/B5,,,B1/B2,,,{8}E7/B7,
{16}B4/E4,,,B8/E8,,,{8}B2/E3,{16}B6/E7,,,B4/E4,,,{8}B5/B6,
E1/B1/E2,{32},,,,,,,,A3,D3,A2,D2,{8}A1h[2:1],{32},,,,,,,,A6,D7,A7,D8,
{8}A8h[2:1],{16},,,,A1,A2,A3,A4,A5,A6,A7,A8,A1,A2,
{8}A3f,{32},,,,,,,,6x,5x,6x,5x,{8}7b,{32},,,,,,,,3x,4x,3x,4x,
{8}2b,1,8/7,6/2,7b,8,1/2,3/7,
{16}4,5,4,5,3,6,3,6,{32}2,3,4,5,6,7,8,1,2/7,6,5,4,3,2,1,8,
{1}7h[4:3]/B3h[4:3]/B4h[4:3]/E4fh[4:3],
{8}8/6V48[8:1],7/5,{16}6,3,,3,,1,8,1,7,5,8,4,
{8}3/1,4/2,{32}5,3,{16}5-8[16:1],,6,{32},,5/1,2,{16}3,3,,8/4,,,{8}1/3V51[8:1],
2/4,{16}3,6,,6,,8,1,8,2,4,1,5,
{8}6/8,5/7,{32}4,6,{16}4-1[16:1],,3,{32},,4/8,7,{16}6,6b,,,,,{8}5/7>1-5[8:1],
6/8,{16}7,2,,2,,4,5,4,6,8,5,1,
{8}2/4,1/3,{32}8,2,{16}8<5[16:1],,7,{32},,8/4,3,{16}2,2,,5p3[16:11]/1p7[16:11],{1},{16},,{32}1,
2,3,4,5,6,7,8,1,2,3,4,5,6,7,8,1/5,4,3,2,1,8,7,6,5,4,3,2,1,8,7,6,
5/2,3,4,5,6,7,8,1,2,3,4,5,6,7,8,1,2/8,7,6,5,4,3,2,1,8,7,6,5,4,3,2,1,
{1}8b/4b,
{2},,6h[2:3]/A1,
A2,
A3,A4,
2h[2:3]/A5,A6,
A7,A8,
{1}1-5[2:1],
8-4[2:1],
{8}4>1[4:1],{16},,,,A8,A7,A6,A5,A4,A3,A2,A1,A8,A7,
{1}A6h[4:3],
{8}4,4,4,4,5,5,5,5,
3h[16:1],3h[16:1],3h[16:1],3h[16:1],6h[16:1],6h[16:1],6h[16:1],6h[16:1],
{24}2,7,2,7,2,7,2,7,2,7,2,7,1,8,1,8,1,8,1,8,1,8,1,8,
{32}2,3,4,5,2,1,8,7,2-6b[16:1],3,4,5,2,1,8,7,,,,,,,,,,,,,,,,,8b,
7,{16}6,{32}1b,2,{16}3,{32}7b,6,{16}5,3-1[16:1],4,{8}3,{16}3/5,5,,7,{8}7/8,
{16}3,5,2,6,4,7,1,5,{8}3/7,7/3,5/1,5/1,
7/2,{16}5,{32}3,4,{8}3,{16}5,2,{8}7,{32}1,8,1,8,{8}1,{16}6,5,
8,1,4,3,7,8,5,4,{8}1/2,2/1,6/5,6/5,
7/2,{16}8,{32}3,4,{16}5,8,{32}2,3,{16}4,{8}7/1-5[8:1],7,7,7,
2/7,{16}1,{32}6,5,{16}4,1,{32}7,6,{16}5,{8}2/8-4[8:1],2,2,2,
{32}3,4,{16}3,{32},,5,4,{8}5,7/3,{32}6,5,{16}6,{32},,4,5,{8}4-8[16:1],6/2,
{4}4,{16}1-5b[16:1],7,3,5,{2}1,
{32}1b,2,{16}3,{32}8b,7,{16}6,{32}2b,3,{16}4,7-5[16:1],8,{8}7,{16}7/1,1,,3,{8}3/4,
{16}7,1,6,2,8,3,5,1,{8}7/3,3/7,1/5,1/5,
3/6,{16}1,{32}7,8,{8}7,{16}1,6,{8}3,{32}5,4,5,4,{8}5,{16}2,1,
4,5,8,7,3,4,1,8,{8}5/6,6/5,2/1,2/1,
7/3,{16}1,{32}6,5,{16}4,1,{32}7,6,{16}5,{8}1/8-4[8:1],1,2,2,
7/2,{16}8,{32}3,4,{16}5,8,{32}2,3,{16}4,{8}8/1-5[8:1],8,7,7,
{32}6,5,{16}6,{32},,4,5,{8}4,2/6,{32}3,4,{16}3,{32},,5,4,{8}5,3/7,
{32}1/8,2,3,4,5,6,7,8,1,2,3,4,5,6,7,8,1-5b[16:1],2,3,4,5,6,7,8,{4}1/5,
{16}6/4,6/4,,3/7,,5<8b[16:1]/1>4b[16:1],,1b/5b,{4}1b/5b,{16}6/2,6/2,,8/4,
,6-1b[16:1]/2-5b[16:1],,6b/2b,{4}6b/2b,{16}3/7-5b[16:1],3,,1,{8}1,{16}4/3-1b[16:1],4,
,7,{8}7,{16}3/8-6b[16:1],3,,2,{8}2,{16}5/4-2b[16:1],5,,8,{8}8,
5b/1b,7b/3b,{48},,,,,,,,,,,,1b>1-5b[4:13],2/8,3/7,4/6,{12}5V71V35-1[6:19],
E
