&title=Happy Man
&artist=福山光晴
&first=0.28
&des=高兴且男人67
&clock_count=4
&lv_5=13+
&des_5=高兴且男人67
&inote_5=(125)
{1},
{8},,,,,,E3/B2/B3/E7/B6/B7,,,Ch[8:7],,,,,,,
{16}8b,,8b,,,,
{16}7h[8:1]/2,,8,,6/5h[8:1],,8,1,6,,2,,7h[8:1]/3,,4,,
{32}8,7,6,,E2,,,,4,5,6,,E1,,,,7,6,5,,E3,,,,41,,,,
{16},,
{16}2h[8:1]/7,,1,,3/4h[8:1],,1,8,3,,7,,2h[8:1]/6,,5,,
{32}3/6h[8:1],4,5,,,,,,6/3h[8:1],5,4,,,,,,3/6,4,5,,
{16}Cf,,E2f/E8f,,,,
{16}5h[8:1]/4,,7,,6h/8h[8:1],,7,8,1h[8:1],,3,,1h[8:1]/4h,,5,,
{32}1/5,,,,1,,,,E2/8h[8:1],B2,B3,,,,,,E8/4h[8:1],B7,B6,,5,,,,27,,,,,,,,
{16}1h[8:1]/8,,3,,2h/4h[8:1],,3,4,5h[8:1],,7,,5h[8:1]/8h,,1,,
{16}1h[2:1]/5,,,,
{32}6x,7,8q5[4:1]*q6[4:1],,2x,3,4,,6x,7,8,,
{16},,,,,,
{16}2h[8:1],,5,,6,,4,7,3,8,1h[8:1]/2-6[8:1],,4,,7,,
{16}8h[8:1],,4,,3,,5,2,6,1,8h[8:1]/7-3[8:1],,5,,2,,
{16}1q3[4:1],,6,,7,,8,,1q4[4:1],,4,,3,,2,,1-4[8:1]*p6[4:1],,,,1b,,,,Cf,,E5,,E8/E2/E3/E7,,,,
{16}7h[8:1]/2,,8,,6/5h[8:1],,8,1,6,,2,,7h[8:1]/3,,4,,8h[4:1]/5h[8:1],,,,,,,,
{32}7/4,6/3,5/2,,8h,,,,2/5,3/6,4/7,,1h,,,,
{16}2h[8:1]/8,,1,,3/4h[8:1],,1,8,3,,7,,2h[8:1]/6,,5,,
4h[8:1],,1h[8:1],,5-2[8:1],,3,,2b-5[8:1]/5b^8[8:1],,,,5b/2b,,,,
{16}1s5[2:1],,{4}Chf[8:5],,,
{16},,18,,2h[8:1],,4,,8,,6-3[8:1]/5,,2-7[8:1]/1,,6b,,2b,,
{32}4,5,6,,8^5[8:1],,,,2,3,4,,8z4[4:1],,,{2},{32},
{16}18,,24,,46,,78,,1^4[8:1]/8,,5^8[8:1],,1,,5,,
{16}4b,,,,7b/8b,,,2b/6b,2b/6b,,,,1b/4b,,,,7b/8b,,5b/6b,,1b/2b,,3b/6b,,
{32}1b-5[8:1]/8b-4[8:1],2b/7b,3b/6b,4b/5b,
{16},,Cf/B2/E3/B3/B7/E7/B6,,,,
{16}18,,7-3[8:1],5,8,,4,,2-4[8:1],1,6-8[8:1],,2,,6,,
4,,8v3[8:1],3,7,,2,,1-4[8:1],1,1-6[8:1],,1,,1,,
5,,6-1[8:1],4,7,,3,,2-5[8:1],1,8-4[8:1],,2,,8,,
1,,7-3[8:1],5,8,,4,,2w6[8:1],1,4,,2,,,,
{16}83,,2-6[8:1],4,1,,5,,7-4[8:1],8,5-2[8:1],,7,,5,,
7,,1-5[8:1],5,8,,6,,7-2[8:1],8,3-6[8:1],,7,,3,,
8,,7-4[8:1],1,6,,2,,3-8[8:1],4,5-1[8:1],,3,,5,,
8,,2-6[8:1],4,1,,5,,7w3[8:1],8,5,,7,,,,
{32}2,3,4,,1h[8:1],,,,8h[8:1],,,,6,5,4,,2h[8:1],,,,1,,2,,5,,4,,8h[8:1],,,,
1,2,3,,7h[8:1],,,,8h[8:1],,,,6,5,4,,2h[8:1],,,,1h[8:1],,,,3,4,5,,,,,,
7,6,5,,8h[8:1],,,,1h[8:1],,,,3,4,5,,7h[8:1],,,,8,,7,,4,,5,,1h[8:1],,,,
8,7,6,,2h[8:1],,,,1h[8:1],,,,3,4,5,,7h[8:1],,,,8h[8:1],,,,6,5,4,,,,,,
{32}1,2,3,,5h[8:1],,,,4h[8:1],,,,6,7,8,,2h[8:1],,,,3,,2,,1,,2h[16:3],,,,,,
{32}3b-6[8:1]*-6[8:1],4,5,6,,,,,6b-3[4:1],,,,
{16},,,,1b,,4b,,,,
{32}8,7,6,,4h[8:1],,,,5h[8:1],,,,3,2,1,,7h[8:1],,,,6,,7,,8,,7h[16:3],,,,,,
{32}6b-3[8:1],5,4,3,,,,,3b-6[4:1]*-6[4:1],,,,
{16},,,,8b,,5b,,,,
{8}2b/3b,7b/6b,1b/4b,8b/5b,
2b/3b,8b/5b,1b/4b,7bs3[2:1]/6b,Chf[8:6],,,,,,,,
{48}1b/8b,2b/7b,6b/3b,5b/4b,,,
{8},,E3/B2/B3/E7/B6/B7/Cf,,,A1/A2/A3/A4/A5/A6/A7/A8/B1/B2/B3/B4/B5/B6/B7/B8/E1/E2/E3/E4/E5/E6/E7/E8/Cf/D1/D2/D3/D4/D5/D6/D7/D8,
