&title=热异常
&artist=25时
&first=0.6
&des=柊
&lv_5=14.7
&inote_1=
&inote_5=(183)
{8}5-8>1[8:9],,4,,4,,4,,4,,4,,2,3,4,5,3/6-2[8:1],,
{8}1,4-1[8:1],,,5,6,6,,{24}3,,B5,B6,B7,,{8}2,1,8,7,6/1q3[2:1],,
{8}7,,8,,6,4,3q8[8:3],,8,,7,,7,5,6,4,6,6v1[8:1],,2,3,4<6[8:1],,1,8,7v4[8:1],1,7-2[8:1],2v8-6[2:1],7,3,,
{8}4,,4-2[8:1],,4,,7,6,1>5[2:1],,6,,7,,8-6-4[16:3],,1,2-6[8:1],,,E8,E7,4q2[4:1],,6,,5,1,6,8,7<5[8:1],,
{8}2,{16}2,,{8}4,{16}3,4,{8}3,5,3,2v5[8:1],,2,7,6,3,3,6,6,2,8<5[8:1],,1,2,3>8[8:1],,7,6,5,3,2,1-5[8:1],5-1[8:1],,,,,
{8}Cf,,
{16}2,6,3,5,2,,3/7,,6,2,5,3,4,,2,1,4,7,3,,6,2,5,3,6,4,7,5,8,,6/2,,
{16}6/2,,7,3,8,4,1,,3,2,3,,1,3,8,2,7,,1,7,1,,6,8,7,5,6,3,5,2,4,,
{16}1/6,,2,5,3,,4/7,,8,3,1,,2/7,,3,6,4,,8/5,,6,3,5,,1/4,,2,5,3,,1/7,,6,4,5,,2/4,,1,6,8,,7/5,,4,6,6,3,5,2,4,3,1,4v7[16:3],8,5,7-5-1[4:1],,,,,,,,
{16}7
,,7,,1,2,3,6,6,,3/5,,4,4,6,7,8,,2,3,4/5,6,7,,1,,7,6,5,3,3,,2/8,,7,1,6,8,5,,3/4,,2,8,1,7,5,6,4,7,5,,3/1,,1/3,,7,4,6,3,5,2,4,,
{16}1x,4,2,5,3,6,7xb,4,6,3,5,2,7bx,1,6,8,5,7,4bx,1,5,2,6,3,7bx,4,6,3,5,2,4bx,2,5,3,6,4,7bx,5,6,4,5,3,4bx,2,5,3,6,4,1bx,3,3,2,2,,,1,4,,4,,3q6[8:5],,,,,,,,,,,,,,,,
{16}5,,,5,8,,6,1,5,2,4,3,1,2,8,3,7-5[8:1],,8,2,7,,1-5[8:1],,2,6,1,7,7,,8,3,7,,2>5[16:3],,8,,2,6,7,8,6,7,8-4[8:1],,5,,8b,,1,1,3,7,2,6,8,5,1,7,2>5[8:1],8,,8,2,,,
{16}7,7,1,,2,2,,7x<4[8:1],,,1,7,,2x-5[8:1],,,8,2,,6xq3[8:1],,,4,6,,5xq2[8:1],,,6,5,,6xp1[8:1],,,8,6,,4p7[8:1],,,6,4,,6,5,4,3,6,5,4,3,6-2[8:1],,3,,,3<6[8:3],,,,,,,,,
{16}7,,7,,2,8,3,,7,4,6,3,8,,2/7,,1,6,2,6,3,8,4,7,5,8,3,7,2,,2,,7,6,5,3,7,4,6,3,{12}5,5,2,6b/4b,5,7,3b/6b,5,4,5,2,2,7,3,4,5b/2b,,{48},
{16}4,7,,7,,4,6,,6,4,,4h[16:2],7,,7,3h[16:3],,5,5,,3,4h[16:2],,2,2h[16:3],,1,1,,3h[16:2],7,,7,4,,4,5h[16:3],,7,7,,5h[8:1],1,,1,6h[8:1],,2,5,3,4,3,4,3,,,4,,,5,,6,,,,,,,,,,,,
{24}E2,,,E6,B5,B4,{16}E4/1,,,1v6[4:1],,,,,,,5,,,4h[16:3],,,7v4[4:1],,,,,,,,,,2,,,3h[16:3],,,5v2[4:1],,,,,,,,,,3,,,4h[16:3],,,6v3[4:1],,,,,,,,,,2,,,1h[16:3],,,5v8[4:1],,,,,,,,,,2,,,3h[16:3],,,7q5[2:1],,,,,,,,,,1,,,2h[16:3],,,6q4[2:1],,,,,,,,,,8,,,1h[16:3],,,5q3[2:1],,,,,,,,,,7,,,8,,,
{16}4q2[4:1],,,,3-7[8:1],,,,{8},8xq4[8:1],6x-2[8:1],,6>6[8:3],,4-8[8:1],,,,,,
{16}5p7[4:1],,,,6-2[8:1],,,,{8},1xp5[8:1],3x-7[8:1],,3<3[8:3],,5-1[8:1],,,,,,
{16}4/6,,3-1[8:1],7,4,,3/5,,,,6,,5<8[8:1],,,,3,,4v7[8:1],,,,5,,,6,5,,5,,,,
{16}5/3,,6-8[8:1],2,5,,6/4,,,,3,,4>1[8:1],,,,6,,5v2[8:1],,,,4,,,3,4,,4,,,,
{16}1/8,,7<5[8:1],2,8,,1/7,,3,,2,4,3>8[8:1],,,4,3,,6,6,4,,3/5<7[8:1],,,4,5,,3h[4:1],,,,
{16}8,,2>4[8:1],7,1,,8/2,,6,,7,5,6<1[8:1],,,5,6,,3,3,5,,6/4>2[8:1],,,5,4,,6,,,,
{16}7/8,,1-5[8:1],6,2,,1-3<4[8:1],7,7h[16:1],,1-7-3[16:3],,6,,1,,5-1[8:1],,6,4,5-7[8:1],,3,,5v8[8:1],,2,,5,,3h[8:1],,
{16}1,,8-4[8:1],3,7,,8-6>5[8:1],2,2h[16:1],,8-2-6[16:3],,3,,8,,4-8[8:1],,3,5,4-2[8:1],,6,,4v1[8:1],,7,,4,,8,,,,,,,,,,,,,,,,,,
{8}3>6[4:9],3,,,,,,,5,4,3,,5,4,3,,4,5,6<3[4:8],,,,,,4,5,6,,4,5,6,,5,4,3>6[4:8],,,,,,5,4,3,,5,4,3,,4,5,6-8-2-4[4:8],,,,,,6,5,4,,4,5,6,,6,5,4-6-8-2[2:4],,,,,,4,3,2,,2,3,4,,4,3,2-4-6-8[1:2],,,,,,2,1,8,,8,1,2,,2,1,8-2-4-6[1:2],,,,,,8,7,6,,6,7,8,,8,7,6<2[4:5],,,,,,,,,,,,,
{32},,,2,3b-8[8:1]b,4,,,,,{32},7,6b<2[8:1],5,{16},,,5bv8[8:1]/6,,,,5bp1[8:1]/7b-3[8:1],,,,5b/7b,,,,8,,6,6,1-5[8:1],,2,,1/7-3[8:1],,6,,7/4b>6[4:1]b,,,,
{16}6p4[4:1]b,,5,,5-1[8:1],,,,5/Cf,,3x,,2x>6[8:1]/8x,,7,,2/8,,,7,8,1,2/6,5,4>1[8:1],,3,,4b/6b,,
{32},,,6,5b<2[4:1]b,4,,,,,,,2b-8-6[16:3]b,3,4,,,,,,3,,,,4,,,,{24}5v6-8[4:1],4,3,
{24}2,,,{8}5,1,1,{24}1,2,3,{8}4b<6v1[4:1]/Cf,,,,7bx,7bx,{16}7,6,{8}5<8-4[8:2]b/B4/E4/B3f,3xb,{16}3bx,2,{8}1-5[8:1],A4,6/1>4[8:1],7,8/1,{24}8,7,6,{8}5>1[8:1],4,6b-8-2[4:1]b/5b,,
{32}2bv7[8:1]b,3,4,,,,,,8bx,,,,,,,,{16}8b-4[8:1],1,2,3,{8}4b/8b<5[8:1]b,,{16}8/3,2,1,8,7-3[8:1],6,5,4,{8}3/7>3[8:1]b,2x,7xb/1xb,
{16},4,5,6,7,8,1/5<2[4:1],,4,,5/7-3[8:1],,,,7bx<1[4:1]b,,,,7b/1b,,,,5bx<1[8:1],4,3,2,1b/5b,,{24}2x,3,4,5b>8[8:1]/Cf,,,
{16},{32}7,6,{16}5b,,,{32},5xb/1xb,6-4[8:1]b/2,7/3,{16},,,3/6<1[8:1],,2-6[8:1],,6,,2,,7,7,4,6,5-1[8:1]b,7,4,,5/3/Cf,,
{16},,4,5,6,7,8>4[8:1]/5,,6,,5/8,,{24}5,6,7,{16}8,,2,1,3,8,4,6,5,7,4,,3/6,,{16}2,3h,4/8-4[8:1]b,7h,6/1,2h,3/8bx/Cf,,
{16},,2x/5x,,3v8[8:1],6,4,,3/6v4[8:1],,7,,6,1,1,,2,5,3,6,4,7,{24}7,2,8,1,,,{16}7/5,,6,4,5,4,3,2,1/5,,
{16}7q3[8:1],2,6,,7/5,,4,,4,2,4,1,4,8,4,7,4,,6/3,,{24}5,4,5,3,,,{16},3,5-7[8:1],,
{16}2,,5-1[8:1]b,,4,4,5,,2-5[8:1],,7,,2<7[8:1]b,6,6,,2v4[8:1],,5-7[8:1],,2,,
{16}5,,3,2,1-7[8:1],,6v3[8:1]b,,1,,6,,
{16}1-5[8:1],,2,7,1-3[8:1],,6-4[8:1],,1,,6,,
{16}2-6[8:1],,3,8,2-4-8[4:1]b,,5,,2b/7b>2[8:3],,,,,,,,,
{16},,,7x/4x,,6v1[8:1],3,5,,6/3v5[8:1],,2,,3,8,8,,7,4,6,3,5,2,{24}2,7,1,8,,,{16}2/4,,3,5,4,5,6,7,8xb/4bx,,
{16}2p6[8:1],7,3,,2/4,,5,,5,7,5,8,5,1,5,2,5,,3h[8:1],8,,8,3,,5v8[8:1],4,6,,5b/3b,,
{16}2,2,7,1,6,6,1b,7,3,4,2,2,5b,3,6,6,4,7,3b,3,6,2,5,5,2b,1,3,8,4,4,7b,5,6,6,8,7,1b,6,2,2,5,3,4b,4,2,1,3,3,8b,4,7,7,5,,,5,6x,,5x,,4x,
