&title=やっっっチャイナ!!!
&artist=miru × A4。
&first=0.089
&des=Chino
&des_5=Chino
&lv_5=14
&inote_5=(155){4},,,,5h[1:1]/A3/B3f/E4,
Ch[2:1],{8},,,,1,
{16}2,4,{8}2,3/5,{16}7,5,7,5,{8}6-4[48:5],3,
{4}6/2-6[48:5],2/8-5[48:5]*-3[48:5],8b,{32}3x/5x,6x/2x,1x/7x,8x,,,,,{8}2/6,
{16}3,4,{8}3,5/2,4/6,7,6/5,4,
7-4[8:1],7,3-8[8:1],3,6-3[8:1],6,{4}1h[8:1],
{8}5/2,{16}3,4,{8}3,7/5,6-4[12:1],4-7[8:1],3,3,
2,{24}8,7,6,{8}3/5,1,{4}2>5[8:1]/8<5[8:1],8b/2b,
{8}7/3,{16}6,5,{8}6,4/7,5/3,2,3/4,5,
2-5[8:1],2,6-1[8:1],6,3-6[8:1],3,{4}8h[8:1],
{8}4/7,{16}6,5,{8}6h[8:1],3,2/5,6,4/7,8,
{4}1w5[8:1],1b,8w4[8:1],8b,
6h[8:1]/2h[8:1],2h[8:1]/6h[8:1],7h[8:1]/3h[8:1],7h[8:1]/3h[8:1],
{8}8qq6[8:1],8,1>5>1b[16:5],1,8bx,7bx,{4}6bx,
{2}5x-8[8:1]*>4-1[8:1],{8}2h[4:1],4,6h[#0.1935501],4,
3/5,6/4,7/5,6/8,7xh[4:1],E2/B1,{4}B1f/E2,
{8}8/1,{16}3,4,{8}2,4/5,{16}6,5,{8}7,8<5[8:1],8,
1>2v4<5[32:5],1,8<7qq5[32:5]*-5[32:5],8,,,{4}2bx,
{8}7/5,{16}6,4,{8}5-8[8:1],5,1pp1[16:3],1,8,8,
7b,6/5,2b-4v5-7[16:5],3/4,{2}5h[4:1],
{4}1/7qq4[16:9],1,1,1,
1/E4,1/E5,1/E6,1/E7,
8/2q5[2:1],8,8,8-6[8:1],
1-5[8:1],2-4[8:1],{2}5x-7[48:5]*-1[48:5],
{4}8/2pp6[8:5],8,8,8pp6[4:3],
5,5,5,5,
7h[8:1]/3h[8:1],{8}1,3/7,{16}6,5,6,5,{4}7/4>1[8:1],
4x<7[8:1],4xw8[48:5],4bx/Cf,6bxh[8:1]/2bxh[8:1],
{8}8b,{24}6,,3,{8}8,{16}5,3,{8}8V64[6:1],8,3>8[8:1],3,
5-1[8:1],5,4>5[2:1],4,8s4b[4:1],7,{16},,,,,,,3,
2-5[8:1],,,7,{8}8p4[8:1],1,8/2-4-8[16:5],1,
{2}5-7[12:1],{8}2-4[8:1]/1-5[8:1],8,{4}2/1,
{8}1b,{16}3,6,{8}1V35[6:1],1,6v1[8:1],7,4,4,
3/8,7/4,{16}6/5-1[8:1],5/6h[16:3],,,,,{8}8,7,6,
1/5,2,3/7,6,5/2,3,8/4,7,
6/5,7/8,2/1,3/4,{4}5/6h[4:1],1>4[8:1]*<6[8:1],
1b,{8}8>3[8:1],7,{4}8/6h[4:1],{8}1-6[48:5],3,
1/5-2[48:5],4,6x-1[48:5],7,{4}6b/2w6[8:1],2b,
{8}8/7,6,5/4,3,2/1,3,4/5,6,
7/8,5,1/2,4,{4}8<5[8:1]*>3[8:1],8w4[8:1],
8b,{8}7/1p5[8:1],2,3,3,8v2[8:1],6,
8/4<7[8:1],5,3w7[8:1],2,{4}3,{8}8x/6x,5x/1x,
4bx/2x,8bx/6x,5bx/7x<3[16:3],2bx/1x,{4}5h[4:1],{8}2x-6[8:1],6,
{4}2/4-7[8:1]*-1[8:1],B4f/E5/E4,{32}8bxz4[8:1],7x/1x,2x/6x,3x/5x,{8}4x,,,{4}E7,
E6,E5,E4,
E3,E2,E1,E8,
E7/D7,D3/E3,{24}4,5,4,5,{12}4,3/6,,,7,
8,6,2,1,3,{4}4-1[48:5]/5-8[4:7],4bx,
{1}2h[8:11],
{16},,,,,,,,3,5,4,6,4,5,{8}3,
{16}7<4[8:1],8,,8,{8}7,1,2-5[8:1],1-6[8:1],2,1,
2,3/5,6qq1[24:7]/4pp1[24:7],7,,,{4}A1f,
{8}2-6[8:1],{16}1,3,{8}2,8,7/5,6,4/3,2,
{16}6,4,7,3,6,4,7,2,8,1,{8}7,{4}5/3,
{16}6,5,{8}8,{16}3,4,{8}1,2/4,3/5,4/6-1[8:1],5/7,
8bx-3[8:1],8x,2bx-5[8:1],2x,4bx-7[8:1]*-8[8:1],4x,{32},,,,,,,,1bx/Cf,
2,3,4,5,6,7,8,1,2,3,4,5,6,7,8,1,2,3,4,5,6,7,8,1,2,3,4,5,6,7,8,
1,2,3,4,5,6,7,8,1,2,3,4,5,6,7,8,1,2,3,4,5,6,7,8,1,2,3,4,5,6,7,8,
,,,,{8}2,{16}5/3>7[16:3],,,7-1-3[16:3],3,,,5,,,{8}6,
7,8/6-8>1-5[4:1],5,4,3h[4:1],,,2,
8/1b,8/7,{16}6/7-5>4-8[4:1],{32},,,,8x,1x,{8}2xh[16:3],,,3-8[8:1]/7-4[8:1],
,7/3<1[2:1],,E8,E7,E6,E5,E4,
,4,{4}7/5-8[8:1],{16}4,,,3,1-5[8:1],2,{8}8,
{4}1b/5-7[8:1]*-3[8:1],5bw1[8:1],{2}5b,
7h[2:1],5h[2:1],
4h[2:1],2h[2:1],
8h[2:1],6h[2:1],
5h[2:1],4-6[12:1],
{4}7/1h[2:1],B7,6h[2:1],E5,
3h[2:1],B2,{12}1,1,1,5,5,5,
{8}4/6,7,8/3,2,6/1,7,8/3,2,
{4}8-4[8:1]/1-5[8:1],8<5[8:1]/1>4[8:1],8/1,{8}6/2,3/7,
{4}4>1b[8:1]/8<5b[8:1],8b/4b,{8}8>3[8:1],7/1,4-8[8:1],4,
5-1[8:1],5,7-4[8:1],7,2-5[8:1],1,2/7,8,
2,{16}5,4,{8}7-4[8:1],2,1q5[8:1],8,1/7-5-1[24:7],8,
5x-3[16:1],,,8x,{4}6-1[8:1]/1-5[8:1],1/6,
{8}2b,{16}5,8,{8}2,{16}5,7,{8}2-4-6[6:1],2,8-3-1[32:5],8,
6x,5x,{16}4,4h[8:1],,Cf,,,{8}5,6/1-5[8:1],2,
3/1>4[8:1],2,7/1<6[8:1],8,3/1-5[8:1],2,7/1,8,
7/5,2/4,8z4[8:1]/1s5[8:1],7/2,{4}8/1,8xp4[8:1]/4xp8[8:1],
8b/4b,{8}8<4[8:1],7,{4}6h[4:1],{8}1<6[8:1],8,
5>2[8:1],4,6x<1[8:1],7,{32}2xw6[8:1],3x,4x,5x,,,,,{4}2b,
{8}8/1,7,6/5,7,8/1,2,4/3,5,
7/8,4/6,1/2,5/3,{4}8<5[8:1]*>3[8:1],8w4[8:1],
8b,{8}7/1q5[8:1],2,{4}3h[4:1],{8}8v2[8:1],6,
8/4<7[8:1],5,3w7[8:1],2,{4}3,{8}8/6,5/1,
4b/2,8b/6,5b/7<3[16:3],2b/1,{4}5h[4:1],{8}2-6[8:1],6,
{4}2/4-7b[8:1],4/3-8[8:1],6<1[8:1]/3<6[8:1],6/3-7b[8:1],
3/5-8[8:1]*-2[8:1],B5f/E6/E5,{32}1b,2/8,7/3,6/4,{8}5<4[4:3],{1},{32}3x/5x,
6x/2x,1x/7x,8x,,,,,{8}2/6,
3,4/7,8,{16}2,2,{8}1,3/7,4,
6v1[8:1],6,5-2[8:1],5,8V64[6:1],8,{4}3h[8:1],
{8}2,{16}4,4,{8}3,2/5,6/1,8/7,{16}2-6[8:1],4,2,4,
{8}2-4[12:1],5-1[8:1],,,{2}6-4[12:1]*-8[12:1],
{8}1b/5,2,3/6,7,8/1,2,{16}6,6,{8}5,
3v8[8:1],3,4-7[8:1],4,1V35[6:1],1,{4}6h[8:1],
{8}7,{16}1,1,{8}8,4/7,3/8,2/1,{16}7,5,7,5,
{8}6,3/8b,{4}1b-5[8:1]/7-5[8:1],7/1>4[8:1],{48}1/A5,D6,A6,D7,A7,D8,{8}A8,
{12}3,3h[24:7],6,6h[8:1],{48},,,,,,,,{16}4,5,2,7,3,6,1,8,
{32}2b/7h[8:1],3,4,5,,,,,8b/3h[8:1],7,6,5,,,,,1b,2/8,3/7,4/6,{8}5,,,{1}B6/B7/E3/B3/B2/E7/Ch[32:0],
E
