&title=WRLDS
&artist=Sta
&first=0.1
&des=WRLDS END 1.2.3.1.
&lv_5=13
&lv_6=13+
&inote_6=(134)
{4},,,5w1[1:3],{1},,,{2},C,
{4}A6/3h[4:3],E6,E5,4h[4:1],
{4}5h[4:3],E6,E7,A7,
{4}7h[4:6],B7,C,B3,
{4}3h[4:3],,,7bpp2[4:2],
{4}4,4,4,4,
{4}4,45,4/E6,4/E7,
{4}47,4/E8,4/E1,41,
{4}4/E2,4/E3,{16}4h[8:1]/3h[16:1],,,,{16}5h[8:1],6h[16:1],,,
{8}5,5,E7/5,E8,4,4,E7/4,E3,
{8}5,5,E4/5,E3,4,4,E3/4,E7,
{8}5,6,B4/6,E3,4,3,B5/3,E7,
{8}4h[4:1],6,6h[4:1],8,8h[4:1],D8/E8,C,D4/E4,
{8}2>5[8:1],2,2/B6/B7,,{16}8<3[4:1],5,5,,8/A3/E3,,,,
{8}1q6[8:1],1,1/B6/B7,,{16}8<3[4:1],5,5,,8/A3/E3,,,,
{8}1,B8,7,C,{16}2,2,{8}B4,6,3,
{8}64,B5,4,C,{16}7,7,{8}B1,3-1[12:1],8,
{8}6<1[8:1],6,6/B2/B3,,{16}4>7[4:1],1,1,,4b/A7/E7,,,,
{8}5q2[8:1],5,5/B2/B3,,{16}4>7[4:1],1,1,,4/A7/E7,,,,
{8}5,B4,3,C,6h[8:1],2h[8:1],8h[8:1],4,
{8}4h[4:1],6,6h[4:1],8,8h[4:1],D8/E8,C,D4/E4,
{8}2-6[8:1],2,6,7,{16}8,8,1,1,7-1[8:1]/2,,,,
{8}3-7[8:1],3,7,6,{16}5,5,4,4,6<1[16:3]/3q2[16:3],,,,
{8},,,B2,14,B3,52,B4,
{8}63,B5,4,C,7,B1,3-1[12:1],8,
{8}6-2[8:1],6,2,3,{16}4,4,5,5,3-5[8:1]/6,,,,
{8}7-3[8:1],7,3,2,{16}1,1,8,8,2-8[8:1]/7,,,,
{8}7,6,51,B1,62,B6,37,B3,
{8}4>2[12:1],8p4[16:2],4p8[8:1],8<5[8:1],8pp2[8:1],,,,
{16}D2,,,E1,6x,,D8,,,,,,5x/6,,,,
{16}E3,,,C,4x,,E7,,,,,,3x/4,,,,
{16}Ch[1:1],,,,2x,,,,,,,,1xv6[12:1],,,,
{4},,,,
{4}2bs6[16:2]/3bs7[16:2],,,5-2[12:1]/6-1[12:1],
{32}Cf`B4`B7`A4`A7,,,,,,,,{16},,2,,1>4[8:1],7,,7,1<6[8:1],,8,,
{16}12,,4,,2/5,,7,,4-8[8:1]/6,,2,,4/A1/E2,,E3/A3,,
{8}4/7b<4[8:1],8,A4/B4/7,B8/A8,4/1b>4[8:1],8,A4/B4/1,B8/A8,
{8}4/7b,2,35,1,2>5[8:1]/5-2[8:1],8,25,,
{8}7-4[8:1]/8-3[8:1],,78,,{16}1/6,,,6,5-8[8:1]*<8[8:1],,12,,
{8}5,,{16}6/1,,3,,8-4[8:1]/2,,6,,8/A5/E6,,E7/A7,,
{8}8/3b>8[8:1],4,A8/B8/3,B4/A4,8/5b<8[8:1],4,A8/B8/5,B4/A4,
{16}3b/8,,6,6,5,,27,,3,4,3,4,2<4[4:1]/5<3[4:1],,8,,
{32}2b/5b,,,,,,,,{16},,7,,8<5[8:1],2,,2,8>3[8:1],,1,,
{16}87,,5,,7/4,,2,,5-1[8:1]/3,,7,,5/A8/E8,,E7/A6,,
{8}5/2b>5[8:1],1,A5/B5/2,B1/A1,5/8b<5[8:1],1,A5/B5/8,B1/A1,
{8}5/2b,7,64,8,5b-1[8:1],7,5bqq5b[4:1],6,
{8}5bpp5b[4:1]/1x,,,3,3,3,6/A4/E4,6,
{8}1/A5/E5,1,A7/E7/3,3,1-5[8:1]/5,,E7,E8,
{8}1-5[8:1]/5,,E4,E3,1-5[8:1]/5,,1pp4>1[8:6]/5pp8<5[8:6],,
{4},,,,
{4}A5,B6/B4,E8/E3/B1,1b,
{16}3/4,,2,,3/4,,5,,6,65,,4,74,,6h[8:1],,
{16}5,6,,6,4,,3h[8:1],,4,4,3,5,4,,5,,
{16}6/5,,7,,6/5,,4,,3,34,,5,25,,3h[8:1],,
{16}4<7[8:1],3,,3,4,,2,,3,5,4,6,5h[8:1],,7,,
{16}4/5,,7,,45,,7,,4,5,,3,4,,56,,
{16}4,4,,7,4qq2[8:1],,3,,4pp6[8:1],,5,,4,,3,,
{16}5/4,,2,,54,,2,,4,5,,4,3,,53,,
{16}4>2[12:1],6,,6,4,,7,,{32}7x,6x,5x,,2x,3x,4x,,2x-6[8:1],3x,4x,,,,,,
{16}2/4,,5,,3/4,,2,,6,74,,4,65,,6h[8:1],,
{16}5,7,,5,4,,3h[8:1],,4,4,2,5,4,,6,,
{16}7/5,,4,,6/5,,7,,3,25,,5,34,,3h[8:1],,
{16}4h[16:3],,,5h[16:3],,,6h[16:3],,,7h[16:5],,,3h[8:1],,,,
{16}4/6,,7,,46,,7,,4,6,,2,4,,56,,
{16}4,4,,7,4>2[12:1],,3,,4<7[8:1],,5,,4,,3,,
{16}6/2,,3,3,4,,72,,6,5,6,5,7/4,,2,,
{32}2x<5[16:3],3x,4x,,2x,3x,4x,,2bx,,,,,,,,1x<4[16:2],2x,3x,,1x,2x,3x,,1bx,,,,,,,,
{8}16,1,E7/1-5[8:1],E3,8/1,8,E3/8<5[8:1],E7,
{8}1/8,1,E7/1>4[8:1],E3,81,8,E3/8-4[8:1],E7,
{8}18,2,B8/2-6[8:1],B4,82,7,B1/7-3[8:1],B5,
{8}47,5,6h[4:1],8,8h[4:1],D8/E8,C,D4/E4,
{8}52,5,E3/5-1[8:1],E4,4/5,4,E7/4>1[8:1],E6,
{8}5/4,5,E3/5<8[8:1],E
4,45,4,E7/4-8[8:1],E6,
{8}54,6,B4/6-2[8:1],B8,46,3,B5/3-7[8:1],B1,
{16}8<4[8:1]/3,,,1,8,,3,,1p3[8:1]/8<4[8:1],,18,,1b/8b,,,,
{16}6/2>5[8:1],,1,,5/2,,1,,8-4[8:1]/5,,1,,8/A3/E3,,E2/A1,,
{16}2/6<1[8:1],,5,,1/6,,5-1-3[6:1],,47,,A8/E8,,E7/A6,,,,
{16}4-6-8[16:2]/2,,8,,4/2,,4,,5-3-1[8:1]/7,,1,,5/7,,5,,
{8}4h[4:1],6,6h[4:1],8,8h[4:1],D8/E8,C,D4/E4,
{16}56,,7,,2/1,,3,,5-2[8:1]/6,,7,,5/E8,,E7,,
{16}43,,2,,7/8,,6-1[8:1],,54,,6/E3,,E4,,E5,,
{4}1x>8[2:1]/5x,E7,E5,E3,
{4}1pp5[2:1]*p6[2:1],,,,
{4}1b/8b,
E
