&title=air's gravity [飞]
&artist=zts
&first=0
&des=Jack2310
&lv_7=13.9
&des_7=Jack2310
&inote_7=
(137){4},{1},,{4},,,{8}1/5h[8:7],
6,2,7,3,8,4,1,
8/4h[8:7],3,7,2,6,1,5,3,
1/5-8[16:9],4,1,4,1,4,1,4,
5/1-4[8:5],8,5,8,5,8,5,8,
1/5,7,1/3,5,6/8,4,1/3,5,
2/7,5,3/4,6,4/8,2,7/6,2,
5/8h[8:7],1,6,2,7,3,6,1,
5/4h[8:7],1,6,2,7,3,{4}8,
{1}5-8[4:5]/1-4[4:5],
{16},,,,,,,,,,,,5b,1b,{8}7b,
4-1[8:1],8-5[8:1],4,8,4-1[8:1],8-5[8:1],4,8,
3-8[8:1],7-4[8:1],3,7,3-8[8:1],7-4[8:1],3,7,
1-4[8:1],5-8[8:1],1,5,1-4[8:1],5-8[8:1],1,5,
2-5[8:1],6-1[8:1],2,6,2-5[8:1],6-1[8:1],2,6,
3-8[8:1],1,7/3,5,7/3-8[8:1],1,3/7,5,
3/7-4[8:1],5,7/3,1,3/7-4[8:1],5,3/7,1,
3/5-8[8:1],7,5/1,3,1/5-8[8:1],7,5/1,3,
5/1-4[8:1],3,1/5,8,5/1-4[8:1],3,{4}1b/5b,
{8}7,{16}3,5,{8}6/8,4,7,{16}2,5,3/8,6,{8}1,
5,{16}7,2,{8}4/8,6,3,{16}5,7,1/3,5,2,8,
{8}4,{16}6,2,{8}5/8,3,6,{16}2,4,6/8,3,{8}1,
5,{16}7,3,{8}6/1,4,8,1/3,{4}7/5,
{8}4,{16}8,6,{8}3/1,5,8,{16}4,6,8/2,5,{8}7,
1,{16}6,4,{8}7/2,5,3,{16}6,1,7/4,2,6,4,
{8}2/8,{16}6,4,{8}2/8,{16}6,4,{8}2/8,{16}6,4,{8}2/8,4/6,
{16}8,4,6,2,8,4,6,2,{8}8,4b/6b,{4}2b/8b,
{8}4/5-8[8:1],1/8-5[8:1],5/4,1,4-1[8:1],8/1-4[8:1],4/5,8,
5,{16}2,4,{8}6,8/2,4,{16}7,1,5,3,8,6,
{8}4/3-8[8:1],7/8-3[8:1],3/4,7,4,{16}5,2,8,4,6,1,
{8}3/4,7/8,1-6[8:1]/2-5[8:1],6/5,{4}2/1,1/2,
{8}8/7-4[8:1],3/4-7[8:1],7/8,3,8,{16}2,4,{8}6/8-5[8:1],2,
8/4-1[8:1],1,4/8,5,7/2,{16}5,8,2,4,6,3,
{8}5/1-5[8:1],7-3[8:1],1,7,1,{16}8,3,6,1,4,7,
{8}3/2,6/7,1-4[8:1]/8-5[8:1],5/4,{4}1/8,8b/1b,
{8}1/7-4[8:1],{16}5,3,{8}7,1,8/2-5[8:1],{16}4,6,{8}2/8-5[8:1],6,
8/4-1[8:1],{16}2,7,{8}4/7-4[8:1],5,3/7,{16}1,5,3,7,4,2,
{8}5/8-3[8:1],{16}6,4,{8}8,6,8/2,{16}4,7,2,5,8,3,
{8}6/5,1/2,4-7[8:1]/3-8[8:1],7/8,{4}3/4,3/4,
{8}7/8>3[8:1],{16}5,3,{8}8,6,1/8<5[8:1],{16}5,1,{8}8/4>1[8:1],1,
4/8<5[8:1],{16}5,3,{8}3>8[8:1],{16}2,7,{8}3,{16}5,2,8,4,6,1,
{8}8/5,1/3,5/7,5/1,3/8,{16}7,2,5,3,8,6,
{8}1b/3b,3/6,4b/8b,4/1,{2}3b-8[8:1]/7b-4[8:1],
{1}3/7,
E
