&title=再见Monstre
&artist=森罗万象 Vo:あよ
&first=-0.204
&lv_5=13+
&des_5=MonsTra
&inote_5=
(139){4},{16},,,,5b/4b,,,6,{8}5,6,
{16}2,4,3,6h[8:1],,5,{8}7<4[8:1],,1,,2,
{16}4,3,5,4h[8:1],,6,{8}5p1[8:1],,7,,,8/2,
3,{16}5,4,,4,6,4,,4,{8}7,8,
2/1,3,{16}5,4,,4,6,4,,4,{8}7,8/1,
{16}7,5,6,3h[8:1],,4,{8}2>5[8:1],,8,,7,
{16}5,6,4,5h[8:1],,3,{8}4q8[8:1],,2,,,1/7,
6,{16}4,5,,5,3,5,,5,{8}2-5[8:1],7/1,
{4}2b/6b-1[8:1],{16}6/4,,,3,,3,{8}8,7/2,6,
{4}1b/5>3q7[2:1],1,1,1,
2/8<6v4[2:1],2,2,2,
5/3>1v7[2:1],5,5,5,
6/8q4[4:1],6,6,{16}6,5,7,4,
{4}8V64[4:1],{8}8/4-7[8:1],3,{16}2,,,1xh[16:3],,,,8,
2V46[4:1],7,{8}3,2/6-2[8:1],7,{4}8,{16}7/3,,,4,
6-1[8:1],5,{8}7,6/2,3,{16}4/8,,,7xh[16:3],,,,5,
6,4,{8}5,3,4,{4}2-6b[8:1],2b/6b,
{16}8b/4b,,,7,{8}5-1[8:1],{16}6,4,5<8[8:1],,,2,{8}5v2[8:1],{16}3,4,
{8}7/5>7[4:1],6,{4}5/3,4h[8:1],6/3,
{12}7,1,8,2,4,3,5,4,6,8-3[8:1],7,1,
{4}8<2[4:1],4/8,1w5[8:1],1,
{2}3v8[8:1]/7<4[8:1],5/1v6[8:1]*-4[8:1],
3v8[8:1]/7<4[8:1],{4}1/5-8[8:1],2,
3/7-2<8-6[2:1],3,4,4,
{8}5,5,3,3,6,6,2,2,
7/1,{16}8,3,6,5,7,1,,1,,2,{8}8,3b/7b,
{16}4,8,5-1[8:1],7,,6,{8}5>7[4:1],,2/5,,3,
{16}4,6,5-1[8:1],7,,8,{8}5qq6[4:1],,5/2h[4:1],{16},,,,7,
1,8-4[8:1],2,,3,{8}8<2[4:1],,8/5,,6,
1/7,{16}8-4[8:1],6,,2,{8}8-2-5[4:1],,4,6,7,
4/8xh[8:1],{16}5,7,4,6,3,5,{8}2-5[8:1],6-1[8:1],2,6,
4h[8:1],{16}8,3,7,2,6,1,{8}5-1[8:1],2,5,3,
{16}4,8,5-1[8:1],7,,6,{8}5>7[4:1],,5/2,,3,
2/6,{16}5,3,,3,{8}1-7-4[4:1],,5,3,2,
{1}Cf/1b>8[2:3],
1xp8[2:1],
{8}7/1,6,{16}4,5,,5,3,5,,5,{8}2,1,
7/8,6,{16}4,5,,5,3,5,,5,{8}2,3/8,
{16}7,5,6,3h[8:1],,4,{8}2>5[8:1],,8,,7,
{16}5,6,4,5h[8:1],,3,{8}4q8[8:1],,2,,,7/1,
6,{16}4,5,,5,3,5,,5,{8}2-5[8:1],7/1,
{4}2b/6b-1[8:1],{16}6/4,,,3,,3,{8}8,7/2,6,
1b/5b,2,{16}4,3,,3,4-8[8:1],2,5,3,{8}4,2,
7/1,6,{16}5,7,,7,5-1[8:1],6,4,8,{8}5,7,
6/2,2,{16}5,3,,3,5-8[8:1],2,4,3,{8}5,2,
{16}7h[8:1]/3h[8:1],,,6,4,5,3,6,4-1[8:1],7,5,6,{8}4,5,
{4}2/6-8v1-3[4:11],2,2,2,
3,3,3,3,
4,4,4,4,
{16}E5f,,,,,,,,,,,7,{8}5,6,
{16}3-8[8:1],5,4,6,{8}3>5[4:1],{16}5,4,{4}3/1,2h[8:1],
{16}6-1[8:1],4,5,3,{8}6<4[4:1],{16}4,5,{4}6/8,7h[8:1],
{8}6/5-1[8:1],4,5,{16}2,3,{8}8/4-8[8:1],7<4[8:1],4,7,
{16}1,2,{8}3h[8:1],{16}5,4,6,5,{8}7-4[8:1],8,7/1,1,
{2}6v1[8:1]/2>5[8:1],4/8v3[8:1]*-5[8:1],
6v1[8:1]/2>5[8:1],{4}8/4-1[8:1],7,
6/2-7>1-3[2:1],6,5,5,
{8}4,4,6,6,3,3,7,7,
8/2,{16}1,6,3,4,2,8,,8,,7,{8}1,6b/2b,
{16}5,3,4-8[8:1],1,,7,{8}4>6[4:1],,4/1,,2,
{16}3,5,4-8[8:1],6,,2,{8}4pp3[4:1],,4/7h[4:1],{16},,,,2,
8,1-5[8:1],7,,3,{8}1<3[4:1],,6/1,,7,
8/2,{16}1-5[8:1],3,,7,{8}1-7-4[4:1],,5,3,2,
1/5,{16}2,4,3-8[8:1],5,{8}4,3/6-1[8:1],7,2/6,3,
8/4,{16}7,5,6-1[8:1],4,5,3,{8}6,4,7/3,2,
{16}5,1,4-8[8:1],2,,3,{8}4<2[4:1],,4/7,,6,
3/7,{16}4,6,,6,{8}8-2-5[4:1],,4,6,7,
{1}Cf/8b<1[2:7],
,8xq1[2:3],
{16},,,,,,,,,,,,,,,,8h[8:1]/2h[8:1],
,,7h[8:1]/3h[8:1],,,6,5,6h[8:1],,,5h[8:1]/4h[8:1],,,3,4,
3h[8:1],,,2h[8:1]/6h[8:1],,,7,1,{8}5-1[8:1],4,5,3,
{12}2,8,1,7,5,6,4,5,3,1-5[8:1],2,8,
{1}1b>7[4:3],
{8}3h[4:1],,,4xh[8:3]/8xh[8:3],,,,,7h[4:1],
,,6xh[8:3]/2xh[8:3],,,,,4h[4:1]/3h[4:1],
,,5xh[8:3]/1xh[8:3],,,,,{4}7x/8xh[4:1],
{12}6,1,4,2,8,3,7,4,6,
{2}5bp2[4:3],7h[4:1],
8h[4:1],{12}2,1,3,5-1[8:1],4,6,
{1}5<4[4:3],
Cf,
{8},4/6h[8:1],{16}5,7,,7,8,7,,7,{8}1,6b/2b,
{16}5,4,1-5[8:1],3,,7,{8}1>7[4:1],,4/1,,3,
{16}8,2,4-8[8:1],1,,6,{8}4>6[4:1],,1/4,,2,
{16}3,5,4-8[8:1],1,,2,{8}4<2[4:1],,7/4,,6,
7/3,{16}8-4[8:1],2,,2,{8}8-2-5[4:1],,4,6,7,
4/8xh[8:1],{16}5,7,1,4,2,6,{8}5-1[8:1],8<5[8:1],5,8,
2h[8:1],{16}4,3,8,5,6,1,{8}4-8[8:1],2-5[8:1],4,2,
{16}8,4,6,2h[16:3],,,5,3,1,4,7,8,{8}6,1/5,
4b/2b,{16}5,3,6,4,7,5xh[16:3],,,{8}6,7/8,1,
8b/2h[8:1],{16}4,3h[8:1],,6,{8}5h[8:1],7h[8:1],{16}2,1h[16:1],{24}5q8[4:3],6,7,8,1,2,
{4}5b/3h[2:1],,,Cf,
E
&lv_7=蓝
&des_7=MonsTra
&inote_7=
(139){4},{16},,,,5$b/4$b,,,6$,{8}5$,6$,
{16}2$,4$,3$,6$,,5$,{8}7<4[8:1],,1$,,2$,
{16}4$,3$,5$,4$,,6$,{8}5p1[8:1],,7$,{4},{256}2$,
8$,{16},{64},,,{128},{8}3$,{16}5$,4$,,4$,6$,4$,,4$,{8}7$,8$,
{256}1$,2$,{16},{64},,,{128},{8}3$,{16}5$,4$,,4$,6$,4$,,4$,{8}7$,{256}1$,8$,{16},{64},,,{128},{16}7$,
5$,6$,3$,,4$,{8}2>5[8:1],,8$,,7$,
{16}5$,6$,4$,5$,,3$,{8}4q8[8:1],,2$,{4},{256}1$,
7$,{16},{64},,,{128},{8}6$,{16}4$,5$,,5$,3$,5$,,5$,{8}2-5[8:1],{256}1$,7$,{16},{64},,,{256},2$,
6-1[8:1],{16},,,{64},,,{128},{256}6$,{16}4$,,,3$,,3$,{8}8$,{256}7$,2$,{16},{64},,,{128},{256}6$,{16},{64},,,{128},{256}1$,
{4}5>3q7[2:1],1$,1$,{256}1$,{16},,,{64},,,{128},{256}2$,
{4}8<6v4[2:1],2$,2$,{256}2$,{16},,,{64},,,{128},{256}5$,
{4}3>1v7[2:1],5$,5$,{256}5$,{16},,,{64},,,{128},{256}6$,
{4}8q4[4:1],6$,6$,{16}6$,5$,7$,4$,
{256}8V64[4:1],{16},,,{64},,,{128},{256}8$,{8}4-7[8:1],3$,{16}2$,,,1$,,,,8$,
2V46[4:1],7$,{256}3$,{16},{64},,,{128},{256}2$,{8}6-2[8:1],7$,{256}8$,{16},,,{64},,,{128},{256}3$,{16}7$,,,4$,
6-1[8:1],5$,{256}7$,{16},{64},,,{128},{256}6$,{8}2$,{256}3$,{16},{64},,,{128},{256}8$,{16}4$,,,7$,,,,5$,
6$,4$,{8}5$,3$,4$,{256}2-6[8:1],{16},,,{64},,,{128},{256}6$,2$,{16},,,{64},,,{128},{256}8$,
{16}4$,,,7$,{8}5-1[8:1],{16}6$,4$,5<8[8:1],,,2$,{8}5v2[8:1],{16}3$,{256}4$,,,,,,,,,,,,,,,7$,
{8}5>7[4:1],{256}6$,{16},{64},,,{128},{256}3$,{4}5$,{256}4$,{16},,,{64},,,{128},{256}3$,{4}6$,
{12}7$,1$,8$,2$,4$,3$,5$,4$,6$,8-3[8:1],7$,1$,
{256}8<2[4:1],{16},,,{64},,,{128},{256}8$,{4}4$,1w5[8:1],{256}1$,{16},,,{64},,,{128},{256}3v8[8:1],
7<4[8:1],{4},{16},,,{64},,,{128},{256}1?-4[0.4384##0.2158],1v6[8:1],5$,{4},{16},,,{64},,,{256},3v8[8:1],
7<4[8:1],{4},{16},,,{64},,,{128},{256}1$,{4}5-8[8:1],{256}2$,{16},,,{64},,,{128},{256}3$,
{4}7-2<8-6[2:1],3$,4$,4$,
{8}5$,5$,3$,3$,6$,6$,2$,{256}2$,{16},{64},,,{128},{256}1$,
{8}7$,{16}8$,3$,6$,5$,7$,1$,,1$,,2$,{256}8$,{16},{64},,,{128},{256}3$,{8}7$,
{16}4$,8$,5-1[8:1],7$,,6$,{8}5>7[4:1],{16},{64},,,{256},,,2$,{8}5$,,3$,
{16}4$,6$,5-1[8:1],7$,,8$,{8}5qq6[4:1],{16},{64},,,{256},,,2$,{8}5$,{16},,,,7$,
1$,8-4[8:1],2$,,3$,{8}8<2[4:1],{16},{64},,,{256},,,5$,{8}8$,{16},,{256}6$,{16},{64},,,{128},{256}1$,
{8}7$,{16}8-4[8:1],6$,,2$,{8}8-2-5[4:1],,4$,6$,7$,
{256}4$,8$,{16},{64},,,{128},{16}5$,7$,4$,6$,3$,5$,{8}2-5[8:1],6-1[8:1],2$,6$,
4$,{16}8$,3$,7$,2$,6$,1$,{8}5-1[8:1],2$,5$,3$,
{16}4$,8$,5-1[8:1],7$,,6$,{8}5>7[4:1],{16},{64},,,{256},,,2$,{8}5$,,3$,
{256}2$,6$,{16},{64},,,{128},{16}5$,3$,,3$,{8}1-7-4[4:1],,5$,3$,2$,
{256}1>8[2:3],Cf,{4},,,{16},,,{64},,,{128},{1}1xp8[2:1],
{256}7$,1$,{16},{64},,,{128},{8}6$,{16}4$,5$,,5$,3$,5$,,5$,{8}2$,1$,
{256}7$,8$,{16},{64},,,{128},{8}6$,{16}4$,5$,,5$,3$,5$,,5$,{8}2$,{256}8$,3$,{16},{64},,,{128},{16}7$,
5$,6$,3$,,4$,{8}2>5[8:1],,8$,,7$,
{16}5$,6$,4$,5$,,3$,{8}4q8[8:1],,2$,{16},,,{64},,,{256},,,1$,
{8}7$,6$,{16}4$,5$,,5$,3$,5$,,5$,{256}2-5[8:1],{16},{64},,,{128},{256}7$,1$,{16},{64},,,{128},{256}2$,
6-1[8:1],{16},,,{64},,,{128},{256}4$,{16}6$,,,3$,,3$,{256}8$,{16},{64},,,{128},{256}2$,{8}7$,{256}6$,{16},{64},,,{128},{256}1$,
{8}5$,2$,{16}4$,3$,,3$,4-8[8:1],2$,5$,3$,{8}4$,{256}2$,{16},{64},,,{128},{256}7$,
{8}1$,6$,{16}5$,7$,,7$,5-1[8:1],6$,4$,8$,{8}5$,{256}7$,{16},{64},,,{128},{256}6$,
{8}2$,2$,{16}5$,3$,,3$,5-8[8:1],2$,4$,3$,{8}5$,2$,
{256}3$,7$,{16},,{64},,,{128},{16}6$,4$,5$,3$,6$,4-1[8:1],7$,5$,6$,{8}4$,{256}5$,{16},{64},,,{128},{256}2$,
{4}6-8v1-3[4:11],2$,2$,2$,
3$,3$,3$,3$,
4$,4$,4$,4$,
{16}E5f,,,,,,,,,,,7$,{8}5$,6$,
{16}3-8[8:1],5$,4$,6$,{8}3>5[4:1],{16}5$,{256}4$,,,,,,,,,,,,,,,1$,{4}3$,2$,
{16}6-1[8:1],4$,5$,3$,{8}6<4[4:1],{16}4$,{256}5$,,,,,,,,,,,,,,,8$,{4}6$,{256}7$,{16},,,{64},,,{128},{256}6$,
{8}5-1[8:1],4$,5$,{16}2$,{256}3$,,,,,,,,,,,,,,,8$,{8}4-8[8:1],7<4[8:1],4$,7$,
{16}1$,2$,{8}3$,{16}5$,4$,6$,5$,{8}7-4[8:1],{256}8$,{16},{64},,,{128},{256}1$,{8}7$,{256}1$,{16},{64},,,{128},{256}6v1[8:1],
2>5[8:1],{4},{16},,,{64},,,{128},{256}8?-5[0.4384##0.2158],8v3[8:1],4$,{4},{16},,,{64},,,{256},6v1[8:1],
2>5[8:1],{4},{16},,,{64},,,{128},{256}8$,{4}4-1[8:1],{256}7$,{16},,,{64},,,{128},{256}6$,
{4}2-7>1-3[2:1],6$,5$,5$,
{8}4$,4$,6$,6$,3$,3$,7$,{256}7$,{16},{64},,,{128},{256}2$,
{8}8$,{16}1$,6$,3$,4$,2$,8$,,8$,,7$,{256}1$,{16},{64},,,{128},{256}2$,{8}6$,
{16}5$,3$,4-8[8:1],1$,,7$,{8}4>6[4:1],{16},{64},,,{256},,,1$,{8}4$,,2$,
{16}3$,5$,4-8[8:1],6$,,2$,{8}4pp3[4:1],{16},{64},,,{256},,,7$,{8}4$,{16},,,,2$,
8$,1-5[8:1],7$,,3$,{8}1<3[4:1],{16},{64},,,{256},,,6$,{8}1$,{16},,{256}7$,{16},{64},,,{128},{256}8$,
{8}2$,{16}1-5[8:1],3$,,7$,{8}1-7-4[4:1],,5$,3$,{256}2$,{16},{64},,,{128},{256}1$,
{8}5$,{16}2$,4$,3-8[8:1],5$,{256}4$,{16},{64},,,{128},{256}3$,{8}6-1[8:1],{256}7$,{16},{64},,,{128},{256}2$,{8}6$,{256}3$,{16},{64},,,{128},{256}8$,
{8}4$,{16}7$,5$,6-1[8:1],4$,5$,3$,{8}6$,{256}4$,{16},{64},,,{128},{256}7$,{8}3$,2$,
{16}5$,1$,4-8[8:1],2$,,3$,{8}4<2[4:1],{16},{64},,,{256},,,7$,{8}4$,{16},,{256}6$,{16},{64},,,{128},{256}3$,
{8}7$,{16}4$,6$,,6$,{8}8-2-5[4:1],,4$,6$,7$,
{256}8<1[2:7],Cf,{1},{4},,,{16},,,{64},,,{128},{1}8xq1[2:3],
,{256}8$,
2$,{16},,{64},,,{128},{256}7$,3$,{16},,{64},,,{128},{16}6$,5$,6$,,,{256}5$,4$,{16},,{64},,,{128},{16}3$,4$,
3$,,,{256}2$,6$,{16},,{64},,,{128},{16}7$,1$,{8}5-1[8:1],4$,5$,3$,
{12}2$,8$,1$,7$,5$,6$,4$,5$,3$,1-5[8:1],2$,8$,
{1}1>7[4:3],
{256}3$,{4},{16},{64},,,{128},{256}4$,{8}8$,{4},,{256}7$,
{4},{16},{64},,,{128},{256}2$,{8}6$,{4},{16},,,{64},,,{256},,,3$,
4$,{4},{16},{64},,,{128},{256}1$,{8}5$,{4},,{256}7$,
8$,{16},,,{64},,,{128},{12}6$,1$,4$,2$,8$,3$,7$,4$,6$,
{2}5p2[4:3],7$,
8$,{12}2$,1$,3$,5-1[8:1],4$,6$,
{1}5<4[4:3],
Cf,
{16},,{256}6$,4$,{16},{64},,,{128},{16}5$,7$,,7$,8$,7$,,7$,{8}1$,{256}2$,6$,{16},{64},,,{128},{16}5$,
4$,1-5[8:1],3$,,7$,{8}1>7[4:1],{16},,{256}1$,4$,{16},,,{64},,,{128},{8}3$,
{16}8$,2$,4-8[8:1],1$,,6$,{8}4>6[4:1],{16},,{256}4$,1$,{16},,,{64},,,{128},{8}2$,
{16}3$,5$,4-8[8:1],1$,,2$,{8}4<2[4:1],{16},{64},,,{256},,,7$,{8}4$,,6$,
{256}7$,3$,{16},{64},,,{128},{16}8-4[8:1],2$,,2$,{8}8-2-5[4:1],,4$,6$,7$,
{256}8$,4$,{16},{64},,,{128},{16}5$,7$,1$,4$,2$,6$,{8}5-1[8:1],8<5[8:1],5$,8$,
2$,{16}4$,3$,8$,5$,6$,1$,{8}4-8[8:1],2-5[8:1],4$,2$,
{16}8$,4$,6$,2$,,,5$,3$,1$,4$,7$,8$,{8}6$,{256}5$,1$,{16},{64},,,{256},4$,
{8}2$,{16}5$,3$,6$,4$,7$,5$,,,{8}6$,{256}7$,8$,{16},{64},,,{128},{8}1$,
{256}8$,2$,{16},{64},,,{128},{16}4$,3$,,6$,{8}5$,7$,{16}2$,1$,{24}5q8[4:3],6$,7$,8$,1$,2$,
{256}5$,3$,{4},,{16},,,{64},,,{128},{4}Cf,
E
